img image001 image001 image001 image001 image001 image001 image001 image001 image001 image001 image001 image001 image001 image001 image001

Planets Sun Sun Sun
Статистика раздачи
Автор: Снежана | Размер: 1.45 ГБ | Добавлен: 24 июл 2013
Раздают: 10    Качают: 3
Скачать торрент
Скачать торрент
Описание торрента

СообщениеДобавлено: 24 июл 2013 

Жанр: комедия
Год выпуска: 2011
Продолжительность: 01:42:30

Режиссёр: Дмитрий Герасимов

В ролях: Ольга Ломоносова, Михаил Пореченков, Поля Полякова, Вадим Колганов, Игорь Верник, Владимир Долинский, Михаил Богдасаров, Вадим Андреев, Кирилл Рубцов, Елена Анищенко

Описание:
По мотивам пьесы С.Карабановой "Подари мне мужа, Санта"
Даже дети знают, что в Новый год могут произойти самые необычные, самые невероятные события, могут исполниться самые заветные желания.
Только Маша не верит в чудеса. Она давно привыкла надеяться только на собственные силы.

Доп. информация:


Качество видео: HDTVRip, исходник - HDTV 1080i
Формат видео: AVI

Видео: 720x400 (1.80:1), 25 fps, XviD build 65 ~1637 kbps avg, 0.23 bit/pixel
Аудио: 48 kHz, AC3 Dolby Digital, 2/0 (L,R) ch, ~384 kbps

Общее
Полное имя : D:TorrentНазад — к счастьюНазад — к счастью_1.45Назад — к счастью_1.45.avi
Формат : AVI
Формат/Информация : Audio Video Interleave
Размер файла : 1,45 Гбайт
Продолжительность : 1 ч. 42 м.
Общий поток : 2032 Кбит/сек
Программа кодирования : VirtualDubMod 1.5.10.3 (build 2550/release)
Библиотека кодирования : VirtualDubMod build 2550/release

Видео
Идентификатор : 0
Формат : MPEG-4 Visual
Профиль формата : Advanced Simple@L5
Параметр BVOP формата : 1
Параметр QPel формата : Нет
Параметр GMC формата : Без точки перехода
Параметр матрицы формата : Выборочная
Идентификатор кодека : XVID
Идентификатор кодека/Подсказка : XviD
Продолжительность : 1 ч. 42 м.
Битрейт : 1638 Кбит/сек
Ширина : 720 пикселей
Высота : 400 пикселей
Соотношение сторон : 16:9
Частота кадров : 25,000 кадров/сек
Цветовое пространство : YUV
Субдискретизация насыщенности : 4:2:0
Битовая глубина : 8 бит
Тип развёртки : Прогрессивная
Метод сжатия : С потерями
Бит/(Пиксели*Кадры) : 0.227
Размер потока : 1,17 Гбайт (81%)
Библиотека кодирования : XviD 65

Аудио
Идентификатор : 1
Формат : AC-3
Формат/Информация : Audio Coding 3
Расширение режима : CM (complete main)
Параметр Endianness формата : Big
Идентификатор кодека : 2000
Продолжительность : 1 ч. 42 м.
Вид битрейта : Постоянный
Битрейт : 384 Кбит/сек
Каналы : 2 канала
Расположение каналов : Front: L R
Частота : 48,0 КГц
Битовая глубина : 16 бит
Метод сжатия : С потерями
Размер потока : 282 Мбайт (19%)
Выравнивание : Разделение по промежуткам
Продолжительность промежутка : 40 мс. (1,00 видеокадр)
Время предзагрузки промежутка : 500 мс.




   Похожие торренты   Торрент   Размер 
В этой теме нет новых непрочитанных сообщений. Назад к счастью, или Кто найдет Синюю птицу (2011) HDTVRip 720p

8 | 4

1.98 ГБ

В этой теме нет новых непрочитанных сообщений. Назад - к счастью, или Кто найдет Синюю птицу (2011) SATRip

46 | 2

1.35 ГБ

В этой теме нет новых непрочитанных сообщений. Назад к счастью, или Кто найдет Синюю птицу (2011) HDTV 1080i

2 | 2

4.72 ГБ

В этой теме нет новых непрочитанных сообщений. Назад к счастью, или Кто найдет Синюю птицу (2011) SATRip от КинозалSAT

4 | 2

1.56 ГБ

В этой теме нет новых непрочитанных сообщений. Назад к счастью, или Кто найдет Синюю птицу (2011) SATRip от КинозалSAT

3 | 3

700.03 МБ

В этой теме нет новых непрочитанных сообщений. Назад – к счастью, или Кто найдет Синюю птицу (2011) WEB-DLRip 1080p от MediaClub

56 | 29

3.88 ГБ

В этой теме нет новых непрочитанных сообщений. История про Ричарда, Милорда и прекрасную Жар-птицу (1997) SATRip

51 | 25

1.43 ГБ




Вы не можете начинать темы
Вы не можете отвечать на сообщения
Вы не можете редактировать свои сообщения
Вы не можете удалять свои сообщения
Вы не можете добавлять вложения

Перейти:  
Для Мосгорсуда, Роскомнадзора и рекламодателей: mosgorsud-torrent[собачка]yandex.ru
cron
 Вход
ppkBB3cker v.2 © 2008-2014 @ PPK
[ Time : 0.023s | 16 Queries | GZIP : Off ]

cron