img image001 image001 image001 image001 image001 image001 image001 image001 image001 image001 image001 image001 image001 image001 image001

Planets Sun Sun Sun
Статистика раздачи
Автор: Снежана | Размер: 7.89 ГБ | Добавлен: 24 июл 2013
Раздают: 222    Качают: 2
Скачать торрент
Скачать торрент
Описание торрента

СообщениеДобавлено: 24 июл 2013 

#77

Страна: Россия
Жанр: спорт, драма, биография
Год выпуска: 2012

Продолжительность: 02:13:53


Перевод: Не требуется

Режиссер: Николай Лебедев

В ролях:
Данила Козловский (Харламов), Олег Меньшиков (Тарасов), Светлана Иванова (Ирина), Владимир Меньшов (Балашов), Александр Лобанов (Гуськов), Сергей Генкин (Кулагин), Роман Мадянов (Альфер), Александр Яковлев (Бобров), Алехандра Грепи (Бегония), Борис Щербаков (Борис), Дарья Екамасова (Татьяна), Хавьер Альсина (дядя Хосе)


Описание: 2 сентября 1972 года. Монреаль. Хоккейная сборная СССР с разгромным счетом 7:3 победила канадских профессионалов из НХЛ в стартовом матче эпохальной Суперсерии СССР-Канада. Это была не просто игра, это была битва за свою страну, которая перевернула мировое представление о хоккее.
Теперь весь мир знал его просто по номеру «17». Валерий Харламов, забивший в том матче 2 шайбы, мгновенно взлетел на вершину славы. Сбылась его мечта -упорство, спортивный талант и суровые уроки великого тренера Анатолия Тарасова сделали из «номера 17» легенду мирового хоккея.






Качество: BDRip 720p
Контейнер: MKV
Исходник: BD
Видео: AVC, 1280x544 (2.35:1), 7999 kbps, 24 fps, 0,479 bpp
Аудио: русский / AC3 / 5.1 / 48 kHz / 448 kbps / 16 bit ||
Навигация по главам: есть



General
Unique ID : 185817200556765553929689716037699213081 (0x8BCB175096EA20428696025355779719)
Complete name : D:Legenda_№17_BDRip.720p.[Youtracker].by.Дядя_Лёша.mkv
Format : Matroska
Format version : Version 4 / Version 2
File size : 7.89 GiB
Duration : 2h 13mn
Overall bit rate : 8 440 Kbps
Encoded date : UTC 2013-06-02 08:26:15
Writing application : mkvmerge v6.1.0 ('Old Devil') built on Mar 4 2013 09:10:42
Writing library : libebml v1.3.0 + libmatroska v1.4.0

Video
ID : 1
Format : AVC
Format/Info : Advanced Video Codec
Format profile : High@L4.1
Format settings, CABAC : Yes
Format settings, ReFrames : 12 frames
Codec ID : V_MPEG4/ISO/AVC
Duration : 2h 13mn
Bit rate : 7 999 Kbps
Width : 1 280 pixels
Height : 544 pixels
Display aspect ratio : 2.35:1
Frame rate mode : Constant
Frame rate : 24.000 fps
Color space : YUV
Chroma subsampling : 4:2:0
Bit depth : 8 bits
Scan type : Progressive
Bits/(Pixel*Frame) : 0.479
Stream size : 7.32 GiB (93%)
Writing library : x264 core 130 r2273 b3065e6
Encoding settings : cabac=1 / ref=12 / deblock=1:-3:-3 / analyse=0x3:0x133 / me=umh / subme=10 / psy=1 / psy_rd=1.00:0.15 / mixed_ref=1 / me_range=24 / chroma_me=1 / trellis=2 / 8x8dct=1 / cqm=0 / deadzone=21,11 / fast_pskip=1 / chroma_qp_offset=-3 / threads=9 / lookahead_threads=1 / sliced_threads=0 / nr=0 / decimate=1 / interlaced=0 / bluray_compat=0 / constrained_intra=0 / bframes=8 / b_pyramid=2 / b_adapt=2 / b_bias=0 / direct=3 / weightb=1 / open_gop=0 / weightp=2 / keyint=240 / keyint_min=22 / scenecut=40 / intra_refresh=0 / rc_lookahead=40 / rc=2pass / mbtree=1 / bitrate=7999 / ratetol=1.0 / qcomp=0.60 / qpmin=10 / qpmax=51 / qpstep=4 / cplxblur=20.0 / qblur=0.5 / ip_ratio=1.40 / aq=1:1.00
Language : English
Default : Yes
Forced : No

Audio
ID : 2
Format : AC-3
Format/Info : Audio Coding 3
Mode extension : CM (complete main)
Format settings, Endianness : Big
Codec ID : A_AC3
Duration : 2h 13mn
Bit rate mode : Constant
Bit rate : 448 Kbps
Channel(s) : 6 channels
Channel positions : Front: L C R, Side: L R, LFE
Sampling rate : 48.0 KHz
Bit depth : 16 bits
Compression mode : Lossy
Stream size : 429 MiB (5%)
Title : Оригинал
Language : Russian
Default : Yes
Forced : Yes

Menu
00:00:00.000 : en:
00:07:01.708 : en:
00:14:53.083 : en:
00:22:34.208 : en:
00:28:59.500 : en:
00:37:15.500 : en:
00:45:29.625 : en:
00:57:35.291 : en:
01:08:11.791 : en:
01:17:34.208 : en:
01:26:25.541 : en:
01:34:09.208 : en:
01:43:26.458 : en:
01:49:54.083 : en:
01:58:50.791 : en:
02:07:19.291 : en:

Раздача от:



   Похожие торренты   Торрент   Размер 
В этой теме нет новых непрочитанных сообщений. Легенда о Костоломе / Легенда о Костяном Драконе / Легенда о Костобое / Legend of the Boneknapper Dragon (2010) BDRip от HQCLUB

20 | 33

451.83 МБ

В этой теме нет новых непрочитанных сообщений. Легенда №17 (2013) BDRip от Youtracker | лицензия

301 | 28

1.46 ГБ

В этой теме нет новых непрочитанных сообщений. Легенда №17 (2013) BDRip-AVC от Youtracker | Лицензия

173 | 14

2.19 ГБ

В этой теме нет новых непрочитанных сообщений. Легенда №17 (2013) BDRip от Youtracker | Лицензия

55 | 16

840.82 МБ

В этой теме нет новых непрочитанных сообщений. Легенда №17 (2013) BDRip от Youtracker | лицензия

37 | 5

2.19 ГБ

В этой теме нет новых непрочитанных сообщений. Легенда №17 (2013) BDRip 1080p от Youtracker | Лицензия

В этой теме нет новых непрочитанных сообщений. Аватар: Легенда о Корре / The Last Airbender: The Legend of Korra [S01-04] (2012-2014) BDRip 720p | D

107 | 174

27.71 ГБ




Вы не можете начинать темы
Вы не можете отвечать на сообщения
Вы не можете редактировать свои сообщения
Вы не можете удалять свои сообщения
Вы не можете добавлять вложения

Перейти:  
Для Мосгорсуда, Роскомнадзора и рекламодателей: mosgorsud-torrent[собачка]yandex.ru
 Вход
ppkBB3cker v.2 © 2008-2014 @ PPK
[ Time : 0.090s | 14 Queries | GZIP : Off ]

Торрент трекер RUTOR.IN, Не можете зайти на rutor.org? Какой новый адрес рутор? Какое зеркало рутор? Не работает rutor.org и зеркала? Тогда наш торрент специально для вас. Rutor.in неофициальное зеркало rutor. В случае если у Вас заблокирован rutor или вдруг Вы не можете на него зайти, то Вы без труда сможете скачать бесплатно и без рекламы последние новинки кино, игр, сериалов и прочего у нас, на Rutor.in. Не нужно использовать прокси, чтобы зайти на рутор, достаточно воспользоваться нашим ресурсом. Все новые фильмы, игры, сериалы, книги и музыка за 2013 и 2014 годы через торрент бесплатно. Скачивайте фильмы в хорошем качестве, игры для пк, xbox, playstation без регистрации. У нас вы найдете новые Зарубежные сериалы и Русские сериалы 2013, 2014, 2015 годов. Оставайтесь с нами, качайте любимые фильмы, игры, сериалы, книги и музыку.