img image001 image001 image001 image001 image001 image001 image001 image001 image001 image001 image001 image001 image001 image001 image001

Planets Sun Sun Sun
Статистика раздачи
Автор: Снежана | Размер: 743.84 МБ | Добавлен: 24 июл 2013
Раздают: 14    Качают: 4
Скачать торрент
Скачать торрент
Описание торрента

СообщениеДобавлено: 24 июл 2013 

#77
Страна: СССР
Производство: Свердловская киностудия
Жанр: мюзикл, мелодрама, комедия
Год выпуска: 1968
Продолжительность: 01:27:24

Перевод: не требуется
Оригинальная аудиодорожка: русский
Cубтитры: нет

Режиссер: Олег Николаевский

В ролях:
Евгений Весник, Ольга Аросева, Борис Савченко, Людмила Купина (озвучание - Ия Саввина), Алексей Чернов, Николай Трофимов, Юлия Вуккерт, Александр Галевский, Иван Переверзев, Сергей Блинников, Савелий Крамаров, Илья Клявер (Олейников), Иван Матвеев, Николай Пишванов, Галина Короткевич, Леонид Шехтман, Валентина Пугачёва, Лев Степанов...

Описание:
Музыкальная комедия по оперетте Юрия Милютина (либретто Владимира Масса и Михаила Червинского).

Только что отгремела Вторая мировая война. Бывший дворецкий местного графа, что бежал вместе с немцами, тайно вернулся в село, чтобы найти хозяйский клад, присвоить его и зажить припеваючи. Однако из этой затеи ничего не вышло...





Исходник: DVB
Тип релиза: SATRip-AVC
Контейнер: MKV

Видео: 696x320@752х320 (2.35:1), 25 fps, H264 ~ 932 kbps avg, 0.167 bit/pixel
Аудио: 48 kHz, Dolby AC3 2.0, 256 kbps

Раздача от:
Общее
Полное имя : Trembita.1968.SATRip-AVC_[Youtracker]_by_AVP Studio.mkv
Формат : Matroska
Версия формата : Version 2
Размер файла : 744 Мбайт
Продолжительность : 1 ч. 27 м.
Общий поток : 1190 Кбит/сек
Дата кодирования : UTC 2013-06-02 13:42:13
Программа кодирования : mkvmerge v5.0.1 ('Es ist Sommer') built on Nov 6 2011 16:23:40
Библиотека кодирования : libebml v1.2.2 + libmatroska v1.3.0

Видео
Идентификатор : 1
Формат : AVC
Формат/Информация : Advanced Video Codec
Профиль формата : High@L4.1
Параметр CABAC формата : Да
Параметр ReFrames формата : 11 кадров
Идентификатор кодека : V_MPEG4/ISO/AVC
Продолжительность : 1 ч. 27 м.
Битрейт : 932 Кбит/сек
Ширина : 696 пикселей
Высота : 320 пикселей
Соотношение сторон : 2,35:1
Соотношение сторон в оригинале : 2,35:1
Частота кадров : 25,000 кадров/сек
Цветовое пространство : YUV
Субдискретизация насыщенности : 4:2:0
Битовая глубина : 8 бит
Тип развёртки : Прогрессивная
Бит/(Пиксели*Кадры) : 0.167
Размер потока : 569 Мбайт (76%)
Библиотека кодирования : x264 core 130 r2273 b3065e6
Настройки программы : cabac=1 / ref=11 / deblock=1:-2:-1 / analyse=0x3:0x113 / me=umh / subme=9 / psy=1 / psy_rd=1.00:0.20 / mixed_ref=1 / me_range=32 / chroma_me=1 / trellis=1 / 8x8dct=1 / cqm=0 / deadzone=21,11 / fast_pskip=0 / chroma_qp_offset=-3 / threads=3 / lookahead_threads=1 / sliced_threads=0 / nr=0 / decimate=0 / interlaced=0 / bluray_compat=0 / constrained_intra=0 / bframes=8 / b_pyramid=2 / b_adapt=2 / b_bias=0 / direct=3 / weightb=1 / open_gop=0 / weightp=2 / keyint=250 / keyint_min=25 / scenecut=40 / intra_refresh=0 / rc_lookahead=60 / rc=2pass / mbtree=1 / bitrate=932 / ratetol=1.0 / qcomp=0.60 / qpmin=0 / qpmax=69 / qpstep=4 / cplxblur=20.0 / qblur=0.5 / ip_ratio=1.40 / aq=1:1.00
Default : Да
Forced : Нет

Аудио
Идентификатор : 2
Формат : AC-3
Формат/Информация : Audio Coding 3
Расширение режима : CM (complete main)
Идентификатор кодека : A_AC3
Продолжительность : 1 ч. 27 м.
Вид битрейта : Постоянный
Битрейт : 256 Кбит/сек
Каналы : 2 канала
Расположение каналов : Front: L R
Частота : 48,0 КГц
Битовая глубина : 16 бит
Метод сжатия : С потерями
Размер потока : 160 Мбайт (22%)
Default : Да
Forced : Нет





   Похожие торренты   Торрент   Размер 
В этой теме нет новых непрочитанных сообщений. Трембита (1968) DVDRip от Youtracker

117 | 28

744.63 МБ

В этой теме нет новых непрочитанных сообщений. Трембита (1968) DVDRip от Generalfilm

52 | 14

1.37 ГБ

В этой теме нет новых непрочитанных сообщений. Трембита (1968) DVDRip от MediaClub | КПК

15 | 16

569.04 МБ

В этой теме нет новых непрочитанных сообщений. Разведчики (1968) DVDRip от Youtracker

52 | 6

744.18 МБ

В этой теме нет новых непрочитанных сообщений. Разведчики (1968) DVDRip-AVC от Youtracker

59 | 9

744.15 МБ

В этой теме нет новых непрочитанных сообщений. Хозяин тайги (1968) DVDRip от Youtracker

310 | 11

746.33 МБ

В этой теме нет новых непрочитанных сообщений. Хозяин тайги (1968) DVDRip от Youtracker

92 | 22

1.42 ГБ




Вы не можете начинать темы
Вы не можете отвечать на сообщения
Вы не можете редактировать свои сообщения
Вы не можете удалять свои сообщения
Вы не можете добавлять вложения

Перейти:  
Для Мосгорсуда, Роскомнадзора и рекламодателей: mosgorsud-torrent[собачка]yandex.ru
 Вход
ppkBB3cker v.2 © 2008-2014 @ PPK
[ Time : 0.017s | 14 Queries | GZIP : On ]

Торрент трекер RUTOR.IN, Не можете зайти на rutor.org? Какой новый адрес рутор? Какое зеркало рутор? Не работает rutor.org и зеркала? Тогда наш торрент специально для вас. Rutor.in неофициальное зеркало rutor. В случае если у Вас заблокирован rutor или вдруг Вы не можете на него зайти, то Вы без труда сможете скачать бесплатно и без рекламы последние новинки кино, игр, сериалов и прочего у нас, на Rutor.in. Не нужно использовать прокси, чтобы зайти на рутор, достаточно воспользоваться нашим ресурсом. Все новые фильмы, игры, сериалы, книги и музыка за 2013 и 2014 годы через торрент бесплатно. Скачивайте фильмы в хорошем качестве, игры для пк, xbox, playstation без регистрации. У нас вы найдете новые Зарубежные сериалы и Русские сериалы 2013, 2014, 2015 годов. Оставайтесь с нами, качайте любимые фильмы, игры, сериалы, книги и музыку.