img image001 image001 image001 image001 image001 image001 image001 image001 image001 image001 image001 image001 image001 image001 image001

Planets Sun Sun Sun
Статистика раздачи
Автор: Снежана | Размер: 4.28 ГБ | Добавлен: 24 июл 2013
Раздают: 19    Качают: 5
Скачать торрент
Скачать торрент
Описание торрента

СообщениеДобавлено: 24 июл 2013 

#77

Информация о фильме
Оригинальное название: Долой коммерцию на любовном фронте, или Услуги по взаимности
Год выхода: 1988
Жанр: Комедия
Режиссер: Михаил Солодухин
В ролях: Галина Петрова, Раиса Мухаметшина, Сергей Арцибашев, Василий Мищенко, Татьяна Аугшкап, Мария Вайсман, Ильхам Ханбудагов, Юрий Кобрин, Ольга Черноок

О фильме: Комедия по мотивам рассказа М. Зощенко «Не надо спекулировать». История о том, как жена «продала» собственного мужа.
Страна: СССР
Студия: Мосфильм
Продолжительность: 01:10:51
Язык: Русский



Файл
Кодек: MPEG-2
Качество: DVD-5
Видео: PAL 4:3 (720x576) VBR
Звук: Русский (Dolby AC3, 2 ch)



Title: Локальный диск
Size: 4.28 Gb ( 4 483 334 KBytes ) - DVD-5
Enabled regions: 1, 2, 3, 4, 5, 6, 7, 8

VTS_01 :
Play Length: 00:00:28
Video: PAL 4:3 (720x576) VBR

VTS_02 :
Play Length: 00:07:49
Video: PAL 16:9 (720x576) VBR, Auto Pan&Scan
Audio:
Russian (Dolby AC3, 2 ch)

VTS_03 :
Play Length: 01:10:51
Video: PAL 4:3 (720x576) VBR
Audio:
Russian (Dolby AC3, 2 ch)

Menu Video:
PAL 4:3 (720x576) VBR
Menu Subtitles:
Not specified
Menu English Language Unit :
Root Menu
Chapter (PTT) Menu


Общее
Полное имя : D:1АААДолой коммерцию на любовном фронте или услуги по взаимности (Михаил Солодухин) [1988-Комедия-DVD5]VIDEO_TSVTS_03_1.VOB
Формат : MPEG-PS
Размер файла : 1024 Мбайт
Продолжительность : 18 м.
Режим общего битрейта : Переменный
Общий поток : 7740 Кбит/сек

Видео
Идентификатор : 224 (0xE0)
Формат : MPEG Video
Версия формата : Version 2
Профиль формата : Main@Main
Параметр BVOP формата : Да
Параметр матрицы формата : Выборочная
Параметр GOP формата : M=3, N=12
Продолжительность : 18 м.
Вид битрейта : Переменный
Битрейт : 7394 Кбит/сек
Максимальный битрейт : 8000 Кбит/сек
Ширина : 720 пикселей
Высота : 576 пикселей
Соотношение сторон : 4:3
Частота кадров : 25,000 кадров/сек
Стандарт вещания : PAL
Цветовое пространство : YUV
Субдискретизация насыщенности : 4:2:0
Битовая глубина : 8 бит
Тип развёртки : Чересстрочная
Порядок развёртки : Нижнее поле первое
Метод сжатия : С потерями
Бит/(Пиксели*Кадры) : 0.713
TimeCode_FirstFrame : 00:00:00:00
TimeCode_Source : Group of pictures header
Размер потока : 978 Мбайт (96%)

Аудио
Идентификатор : 189 (0xBD)-128 (0x80)
Формат : AC-3
Формат/Информация : Audio Coding 3
Расширение режима : CM (complete main)
Параметр Endianness формата : Big
Режим смешивания : DVD-Video
Продолжительность : 18 м.
Вид битрейта : Постоянный
Битрейт : 192 Кбит/сек
Каналы : 2 канала
Расположение каналов : Front: L R
Частота : 48,0 КГц
Битовая глубина : 16 бит
Метод сжатия : С потерями
Размер потока : 25,4 Мбайт (2%)

Меню





   Похожие торренты   Торрент   Размер 
В этой теме нет новых непрочитанных сообщений. Долой коммерцию на любовном фронте, или Услуги по взаимности (1988) DVDRip

5 | 4

700.92 МБ

В этой теме нет новых непрочитанных сообщений. Долой коммерцию на любовном фронте, или Услуги по взаимности (1988) DVDRip-AVC от ExKinoRay

93 | 4

1.33 ГБ

В этой теме нет новых непрочитанных сообщений. Долой коммерцию на любовном фронте, или Услуги по взаимности (1988) DVDRip от Киномагия

4 | 4

800.35 МБ

В этой теме нет новых непрочитанных сообщений. Интимные услуги / Personal Services (1987) DVD5 от Brazzass

53 | 26

4.07 ГБ

В этой теме нет новых непрочитанных сообщений. С глаз - долой, из чарта - вон! / Music and Lyrics (2007) DVD5 от Youtracker | D

84 | 4

4.37 ГБ

В этой теме нет новых непрочитанных сообщений. Интимные услуги / Personal Services (1987) DVDRip

2 | 3

1.37 ГБ

В этой теме нет новых непрочитанных сообщений. Долой огуречного короля (1990) DVDRip

0 | 4

956.28 МБ




Вы не можете начинать темы
Вы не можете отвечать на сообщения
Вы не можете редактировать свои сообщения
Вы не можете удалять свои сообщения
Вы не можете добавлять вложения

Перейти:  
Для Мосгорсуда, Роскомнадзора и рекламодателей: mosgorsud-torrent[собачка]yandex.ru
 Вход
ppkBB3cker v.2 © 2008-2014 @ PPK
[ Time : 1.724s | 15 Queries | GZIP : Off ]

Торрент трекер RUTOR.IN, Не можете зайти на rutor.org? Какой новый адрес рутор? Какое зеркало рутор? Не работает rutor.org и зеркала? Тогда наш торрент специально для вас. Rutor.in неофициальное зеркало rutor. В случае если у Вас заблокирован rutor или вдруг Вы не можете на него зайти, то Вы без труда сможете скачать бесплатно и без рекламы последние новинки кино, игр, сериалов и прочего у нас, на Rutor.in. Не нужно использовать прокси, чтобы зайти на рутор, достаточно воспользоваться нашим ресурсом. Все новые фильмы, игры, сериалы, книги и музыка за 2013 и 2014 годы через торрент бесплатно. Скачивайте фильмы в хорошем качестве, игры для пк, xbox, playstation без регистрации. У нас вы найдете новые Зарубежные сериалы и Русские сериалы 2013, 2014, 2015 годов. Оставайтесь с нами, качайте любимые фильмы, игры, сериалы, книги и музыку.