img image001 image001 image001 image001 image001 image001 image001 image001 image001 image001 image001 image001 image001 image001 image001

Planets Sun Sun Sun
Статистика раздачи
Автор: Снежана | Размер: 744.18 МБ | Добавлен: 24 июл 2013
Раздают: 52    Качают: 6
Скачать торрент
Скачать торрент
Описание торрента

СообщениеДобавлено: 24 июл 2013 

#77
Страна: СССР
Производство: Студия Довженко
Жанр: приключения, военный
Год выпуска: 1968
Продолжительность: 01:14:54

Перевод: не требуется
Оригинальная аудиодорожка: русский
Cубтитры: нет

Режиссер: Алексей Швачко, Игорь Самборский

В ролях:
Иван Миколайчук, Леонид Быков, Константин Степанков, Андрей Сова, Алексей Смирнов, Гижури Кобахидзе, Людмила Марченко, Виталий Дорошенко, Владимир Емельянов, Лаврентий Масоха, Валерий Панарин, Юрий Цупко...

Описание:
Идут бои на окраинах города у реки Дунай. Река — единственная водная артерия города — заминирована противником, что сковывает действия наших войск, кроме того, город с миллионным населением остался без продовольствия, люди умирают от голода, вспыхиваютэпидемии, а ниже, по Дунаю стоят советские караваны судов с продовольствием, командование поручает группе разведчиков трудную и очень опасную операцию — раздобыть у противника карту заминированных участков Дуная...





Исходник: DVD5 R5
Тип релиза: DVDRip
Контейнер: AVI

Видео: 688x384 (16:9), 25 fps, XviD ~ 1251 kbps avg, 0.189 bit/pixel
Аудио: 48 kHz, MP3 2.0, 128 kbps

Раздача от:
Общее
Полное имя : РазведчикиRazvedchiki.1968.DVDRip_[Youtracker]_by_AVP Studio.avi
Формат : AVI
Формат/Информация : Audio Video Interleave
Размер файла : 744 Мбайт
Продолжительность : 1 ч. 14 м.
Общий поток : 1389 Кбит/сек
Программа кодирования : VirtualDubMod 1.5.10.3 | www.virtualdub-fr.org || (build 2550/release)
Библиотека кодирования : VirtualDubMod build 2550/release

Видео
Идентификатор : 0
Формат : MPEG-4 Visual
Профиль формата : Advanced Simple@L5
Параметр BVOP формата : 1
Параметр QPel формата : Нет
Параметр GMC формата : Без точки перехода
Параметр матрицы формата : Выборочная
Идентификатор кодека : XVID
Идентификатор кодека/Подсказка : XviD
Продолжительность : 1 ч. 14 м.
Битрейт : 1251 Кбит/сек
Ширина : 688 пикселей
Высота : 384 пикселя
Соотношение сторон : 16:9
Частота кадров : 25,000 кадров/сек
Цветовое пространство : YUV
Субдискретизация насыщенности : 4:2:0
Битовая глубина : 8 бит
Тип развёртки : Прогрессивная
Метод сжатия : С потерями
Бит/(Пиксели*Кадры) : 0.189
Размер потока : 670 Мбайт (90%)
Библиотека кодирования : XviD 64

Аудио
Идентификатор : 1
Формат : MPEG Audio
Версия формата : Version 1
Профиль формата : Layer 3
Режим : Joint stereo
Расширение режима : MS Stereo
Идентификатор кодека : 55
Идентификатор кодека/Подсказка : MP3
Продолжительность : 1 ч. 14 м.
Вид битрейта : Постоянный
Битрейт : 128 Кбит/сек
Каналы : 2 канала
Частота : 48,0 КГц
Метод сжатия : С потерями
Размер потока : 68,6 Мбайт (9%)
Выравнивание : Соединение по промежуткам
Продолжительность промежутка : 40 мс. (1,00 видеокадр)
Время предзагрузки промежутка : 504 мс





   Похожие торренты   Торрент   Размер 
В этой теме нет новых непрочитанных сообщений. Разведчики (1968) DVDRip-AVC от Youtracker

59 | 9

744.15 МБ

В этой теме нет новых непрочитанных сообщений. Разведчики (1968) DVDRip от Русфильм

68 | 9

1 ГБ

В этой теме нет новых непрочитанных сообщений. Трембита (1968) DVDRip-AVC от Youtracker

14 | 4

743.84 МБ

В этой теме нет новых непрочитанных сообщений. Трембита (1968) DVDRip от Youtracker

117 | 28

744.63 МБ

В этой теме нет новых непрочитанных сообщений. Это было в разведке (1968) DVDRip от Youtracker

7 | 24

743.31 МБ

В этой теме нет новых непрочитанных сообщений. Служили два товарища (1968) DVDRip-AVC от Youtracker

187 | 8

1.46 ГБ

В этой теме нет новых непрочитанных сообщений. Доживем до понедельника (1968) DVDRip-AVC от Youtracker

143 | 16

1.46 ГБ




Вы не можете начинать темы
Вы не можете отвечать на сообщения
Вы не можете редактировать свои сообщения
Вы не можете удалять свои сообщения
Вы не можете добавлять вложения

Перейти:  
Для Мосгорсуда, Роскомнадзора и рекламодателей: mosgorsud-torrent[собачка]yandex.ru
 Вход
ppkBB3cker v.2 © 2008-2014 @ PPK
[ Time : 0.763s | 17 Queries | GZIP : Off ]

Торрент трекер RUTOR.IN, Не можете зайти на rutor.org? Какой новый адрес рутор? Какое зеркало рутор? Не работает rutor.org и зеркала? Тогда наш торрент специально для вас. Rutor.in неофициальное зеркало rutor. В случае если у Вас заблокирован rutor или вдруг Вы не можете на него зайти, то Вы без труда сможете скачать бесплатно и без рекламы последние новинки кино, игр, сериалов и прочего у нас, на Rutor.in. Не нужно использовать прокси, чтобы зайти на рутор, достаточно воспользоваться нашим ресурсом. Все новые фильмы, игры, сериалы, книги и музыка за 2013 и 2014 годы через торрент бесплатно. Скачивайте фильмы в хорошем качестве, игры для пк, xbox, playstation без регистрации. У нас вы найдете новые Зарубежные сериалы и Русские сериалы 2013, 2014, 2015 годов. Оставайтесь с нами, качайте любимые фильмы, игры, сериалы, книги и музыку.
cron