img image001 image001 image001 image001 image001 image001 image001 image001 image001 image001 image001 image001 image001 image001 image001

Planets Sun Sun Sun
Статистика раздачи
Автор: Снежана | Размер: 744.15 МБ | Добавлен: 24 июл 2013
Раздают: 59    Качают: 9
Скачать торрент
Скачать торрент
Описание торрента

СообщениеДобавлено: 24 июл 2013 

#77
Страна: СССР
Производство: Студия Довженко
Жанр: приключения, военный
Год выпуска: 1968
Продолжительность: 01:14:54

Перевод: не требуется
Оригинальная аудиодорожка: русский
Cубтитры: нет

Режиссер: Алексей Швачко, Игорь Самборский

В ролях:
Иван Миколайчук, Леонид Быков, Константин Степанков, Андрей Сова, Алексей Смирнов, Гижури Кобахидзе, Людмила Марченко, Виталий Дорошенко, Владимир Емельянов, Лаврентий Масоха, Валерий Панарин, Юрий Цупко...

Описание:
Идут бои на окраинах города у реки Дунай. Река — единственная водная артерия города — заминирована противником, что сковывает действия наших войск, кроме того, город с миллионным населением остался без продовольствия, люди умирают от голода, вспыхиваютэпидемии, а ниже, по Дунаю стоят советские караваны судов с продовольствием, командование поручает группе разведчиков трудную и очень опасную операцию — раздобыть у противника карту заминированных участков Дуная...





Исходник: DVD5 R5
Тип релиза: DVDRip-AVC
Контейнер: MKV

Видео: 696x520@926x520 (16:9), 25 fps, XviD ~ 1195 kbps avg, 0.132 bit/pixel
Аудио: 48 kHz, Dolby AC3 2.0, 192 kbps

Раздача от:
Общее
Полное имя : Razvedchiki.1968.DVDRip_[Youtracker]_by_AVP Studio.mkv
Формат : Matroska
Версия формата : Version 4 / Version 2
Размер файла : 744 Мбайт
Продолжительность : 1 ч. 14 м.
Общий поток : 1389 Кбит/сек
Название фильма : Razvedchiki.1968.DVDRip_[Youtracker]_by_AVP Studio
Дата кодирования : UTC 2013-06-07 07:23:58
Программа кодирования : mkvmerge v6.2.0 ('Promised Land') built on Apr 28 2013 12:22:01
Библиотека кодирования : libebml v1.3.0 + libmatroska v1.4.0

Видео
Идентификатор : 1
Формат : AVC
Формат/Информация : Advanced Video Codec
Профиль формата : High@L4.1
Параметр CABAC формата : Да
Параметр ReFrames формата : 11 кадров
Идентификатор кодека : V_MPEG4/ISO/AVC
Продолжительность : 1 ч. 14 м.
Битрейт : 1195 Кбит/сек
Ширина : 696 пикселей
Высота : 520 пикселей
Соотношение сторон : 16:9
Соотношение сторон в оригинале : 16:9
Частота кадров : 25,000 кадров/сек
Цветовое пространство : YUV
Субдискретизация насыщенности : 4:2:0
Битовая глубина : 8 бит
Тип развёртки : Прогрессивная
Бит/(Пиксели*Кадры) : 0.132
Размер потока : 626 Мбайт (84%)
Заголовок : Источник DVD
Библиотека кодирования : x264 core 130 r2273 b3065e6
Настройки программы : cabac=1 / ref=11 / deblock=1:-2:-1 / analyse=0x3:0x113 / me=umh / subme=9 / psy=1 / psy_rd=1.00:0.20 / mixed_ref=1 / me_range=32 / chroma_me=1 / trellis=1 / 8x8dct=1 / cqm=0 / deadzone=21,11 / fast_pskip=0 / chroma_qp_offset=-3 / threads=3 / lookahead_threads=1 / sliced_threads=0 / nr=0 / decimate=0 / interlaced=0 / bluray_compat=0 / constrained_intra=0 / bframes=8 / b_pyramid=2 / b_adapt=2 / b_bias=0 / direct=3 / weightb=1 / open_gop=0 / weightp=2 / keyint=250 / keyint_min=25 / scenecut=40 / intra_refresh=0 / rc_lookahead=60 / rc=2pass / mbtree=1 / bitrate=1195 / ratetol=1.0 / qcomp=0.60 / qpmin=0 / qpmax=69 / qpstep=4 / cplxblur=20.0 / qblur=0.5 / ip_ratio=1.40 / aq=1:1.00
Язык : Russian
Default : Да
Forced : Нет

Аудио
Идентификатор : 2
Формат : AC-3
Формат/Информация : Audio Coding 3
Профиль формата : Dolby Digital
Расширение режима : CM (complete main)
Идентификатор кодека : A_AC3
Продолжительность : 1 ч. 14 м.
Вид битрейта : Постоянный
Битрейт : 192 Кбит/сек
Каналы : 2 канала
Расположение каналов : Front: L R
Частота : 48,0 КГц
Битовая глубина : 16 бит
Метод сжатия : С потерями
Размер потока : 103 Мбайт (14%)
Заголовок : Источник DVD
Язык : Russian
Default : Да
Forced : Нет





   Похожие торренты   Торрент   Размер 
В этой теме нет новых непрочитанных сообщений. Разведчики (1968) DVDRip от Youtracker

52 | 6

744.18 МБ

В этой теме нет новых непрочитанных сообщений. Разведчики (1968) DVDRip от Русфильм

68 | 9

1 ГБ

В этой теме нет новых непрочитанных сообщений. Трембита (1968) DVDRip от Youtracker

117 | 28

744.63 МБ

В этой теме нет новых непрочитанных сообщений. Трембита (1968) DVDRip-AVC от Youtracker

14 | 4

743.84 МБ

В этой теме нет новых непрочитанных сообщений. Хозяин тайги (1968) DVDRip от Youtracker

310 | 11

746.33 МБ

В этой теме нет новых непрочитанных сообщений. Доживем до понедельника (1968) DVDRip от Youtracker

19 | 6

745.3 МБ

В этой теме нет новых непрочитанных сообщений. Доживем до понедельника (1968) DVDRip-AVC от Youtracker

143 | 16

1.46 ГБ




Вы не можете начинать темы
Вы не можете отвечать на сообщения
Вы не можете редактировать свои сообщения
Вы не можете удалять свои сообщения
Вы не можете добавлять вложения

Перейти:  
Для Мосгорсуда, Роскомнадзора и рекламодателей: mosgorsud-torrent[собачка]yandex.ru
 Вход
ppkBB3cker v.2 © 2008-2014 @ PPK
[ Time : 0.022s | 14 Queries | GZIP : Off ]

Торрент трекер RUTOR.IN, Не можете зайти на rutor.org? Какой новый адрес рутор? Какое зеркало рутор? Не работает rutor.org и зеркала? Тогда наш торрент специально для вас. Rutor.in неофициальное зеркало rutor. В случае если у Вас заблокирован rutor или вдруг Вы не можете на него зайти, то Вы без труда сможете скачать бесплатно и без рекламы последние новинки кино, игр, сериалов и прочего у нас, на Rutor.in. Не нужно использовать прокси, чтобы зайти на рутор, достаточно воспользоваться нашим ресурсом. Все новые фильмы, игры, сериалы, книги и музыка за 2013 и 2014 годы через торрент бесплатно. Скачивайте фильмы в хорошем качестве, игры для пк, xbox, playstation без регистрации. У нас вы найдете новые Зарубежные сериалы и Русские сериалы 2013, 2014, 2015 годов. Оставайтесь с нами, качайте любимые фильмы, игры, сериалы, книги и музыку.