img image001 image001 image001 image001 image001 image001 image001 image001 image001 image001 image001 image001 image001 image001 image001

Planets Sun Sun Sun
Статистика раздачи
Автор: Снежана | Размер: 6.44 ГБ | Добавлен: 24 июл 2013
Раздают: 39    Качают: 17
Скачать торрент
Скачать торрент
Описание торрента

СообщениеДобавлено: 24 июл 2013 

Берегись автомобиля




#77
Год выпуска: 1966
Страна: СССР
Жанр: мелодрама, комедия, криминал...
Продолжительность: 01:32:24
Перевод: Не требуется

Режиссер: Эльдар Рязанов
Сценарий: Эмиль Брагинский, Эльдар Рязанов
Оператор: Анатолий Мукасей, Владимир Нахабцев
Композитор: Андрей Петров
Художник: Борис Немечек, Лев Семенов, Мариам Быховская
Монтаж: Екатерина Овсянникова

В ролях: Иннокентий Смоктуновский (Юрий Иванович Деточкин), Олег Ефремов (следователь Максим Подберёзовиков), Любовь Добржанская (мама Деточкина), Анатолий Папанов (Сокол-Кружин, тесть Семицветова), Ольга Аросева (Люба), Андрей Миронов (Дима Семицветов), Георгий Жжёнов (милиционер), Евгений Евстигнеев (режиссёр самодеятельности)


Описание: Эта удивительная история вполне может считаться фантастической. Скромный и застенчивый страховой агент, актер самодеятельного театра Юрий Деточкин оказывается непримиримым борцом за справедливость. Правда, для правосудия, представляемого актером того же театра, а в миру — следователем Подберезовиковым, этот Робин Гуд представляется опасным, хитроумным, изобретательным и неуловимым преступником…

Бонус: Видео комментарии режиссёра Эльдара Рязанова:
Продолжительность: 00:32:46

Видео: 536x400 (4:3), 25.000 fps, AVC, 2 792 Kbps
Аудио: AC3, 192 Kbps, 48.0 KHz, 2 ch


Зрители: СССР 29 млн
Релиз на DVD: 11 января 2011, «Парадиз Медиа», ...
Релиз на Blu-Ray: 28 мая 2013, «Lizard Cinema Trade», ...




Качество: BDRip.1080р
Формат: MKV
Видео кодек: AVC
Аудио кодеk: AC3
Видео: 1484x1080 (1.374:1), 23.976 fps, AVC, 8 475 Kbps
Аудио: AC3, 448 Kbps, 48.0 KHz, 6 ch




Лог:
- x264 [info]: frame I:645 Avg QP:17.06 size:139018
- x264 [info]: frame P:26854 Avg QP:19.66 size: 73666
- x264 [info]: frame B:105429 Avg QP:21.50 size: 36093

General
Complete name : Beregis.avtomobil.1966.BDRip.1080p.mkv
Format : Matroska
File size : 5.76 GiB
Duration : 1h 32mn
Overall bit rate : 8 924 Kbps
Encoded date : UTC 2013-06-08 00:30:43
Writing application : mkvmerge v6.1.0 ('Old Devil') built on Mar 2 2013 14:32:37
Writing library : libebml v1.3.0 + libmatroska v1.4.0

Video
ID : 1
Format : AVC
Format/Info : Advanced Video Codec
Format profile : High@L4.1
Format settings, CABAC : Yes
Format settings, ReFrames : 4 frames
Muxing mode : Container profile=Unknown@4.1
Codec ID : V_MPEG4/ISO/AVC
Duration : 1h 32mn
Bit rate : 8 475 Kbps
Width : 1 484 pixels
Height : 1 080 pixels
Display aspect ratio : 1.374
Frame rate : 23.976 fps
Color space : YUV
Chroma subsampling : 4:2:0
Bit depth : 8 bits
Scan type : Progressive
Bits/(Pixel*Frame) : 0.221
Stream size : 5.36 GiB (93%)
Writing library : x264 core 133 r2334 a3ac64b
Encoding settings : cabac=1 / ref=4 / deblock=1:-1:-1 / analyse=0x3:0x133 / me=umh / subme=10 / psy=1 / psy_rd=1.00:0.00 / mixed_ref=1 / me_range=32 / chroma_me=1 / trellis=2 / 8x8dct=1 / cqm=0 / deadzone=21,11 / fast_pskip=0 / chroma_qp_offset=-2 / threads=6 / lookahead_threads=1 / sliced_threads=0 / nr=0 / decimate=1 / interlaced=0 / bluray_compat=0 / constrained_intra=0 / bframes=10 / b_pyramid=2 / b_adapt=2 / b_bias=0 / direct=3 / weightb=1 / open_gop=0 / weightp=2 / keyint=240 / keyint_min=24 / scenecut=40 / intra_refresh=0 / rc_lookahead=50 / rc=2pass / mbtree=0 / bitrate=8475 / ratetol=2.0 / qcomp=1.00 / qpmin=0 / qpmax=51 / qpstep=4 / cplxblur=20.0 / qblur=0.5 / vbv_maxrate=48000 / vbv_bufsize=40000 / nal_hrd=none / ip_ratio=1.40 / pb_ratio=1.30 / aq=1:1.00
Color primaries : BT.709-5, BT.1361, IEC 61966-2-4, SMPTE RP177
Transfer characteristics : BT.709-5, BT.1361
Matrix coefficients : BT.709-5, BT.1361, IEC 61966-2-4 709, SMPTE RP177

Audio
ID : 2
Format : AC-3
Format/Info : Audio Coding 3
Mode extension : CM (complete main)
Codec ID : A_AC3
Duration : 1h 32mn
Bit rate mode : Constant
Bit rate : 448 Kbps
Channel(s) : 6 channels
Channel positions : Front: L C R, Side: L R, LFE
Sampling rate : 48.0 KHz
Bit depth : 16 bits
Stream size : 296 MiB (5%)
Language : Russian

Menu
00:00:00.000 : en:00:00:00.000
00:05:18.818 : en:00:05:18.818
00:10:26.334 : en:00:10:26.334
00:15:58.499 : en:00:15:58.499
00:26:47.272 : en:00:26:47.272
00:30:16.773 : en:00:30:16.773
00:37:46.848 : en:00:37:46.848
00:40:17.999 : en:00:40:17.999
00:45:02.533 : en:00:45:02.533
00:53:21.698 : en:00:53:21.698
00:57:08.133 : en:00:57:08.133
01:07:43.977 : en:01:07:43.977
01:19:33.978 : en:01:19:33.978
01:22:34.449 : en:01:22:34.449
01:27:38.295 : en:01:27:38.295


★ Мосфильмовская «Волга» ГАЗ-21, на которой Деточкин ушел от погони, впоследствии стала знаменитым «такси на Дубровку» Папанова (только перекрашенным) в фильме «Бриллиантовая рука» (1968) и машиной-такси героя Ефремова в фильме ««Три тополя» на Плющихе» (1967).

★ Вальс, звучащий во время погони милиционера за Деточкиным, использует музыкальную фразу из песни «Padam… Padam…». Эта мелодия композитора Андрея Петрова одна из наиболее известных и узнаваемых в мире музыки кино. В репертуаре Сергея Никитина есть песня «Стеклянный Господин» (на стихи Евгения Евтушенко) использующая мотив вальса из фильма «Берегись автомобиля».

★ В этом фильме Деточкин (Смоктуновский) играет Гамлета в самодеятельности. Примечательно, что Иннокентий Смоктуновский к тому времени уже блестяще сыграл Гамлета в одноименном фильме. Постановка театра самодеятельности использует другой перевод пьесы, М. Лозинского, а не Б. Пастернака.

★ В эпизоде, где «Волга» Деточкина во время погони задним ходом выезжает с крутой обочины на дорогу, если приглядеться, заметен трос, который вытягивает машину.

★ В сцене погони Деточкин на большой скорости справа объезжает препятствия в виде стоящего на дороге грузовика (возле него никого нет) и движущегося навстречу автобуса. В следующий миг видно, что грузовик стоит на обочине, а водитель накачивает колесо.

★ Когда происходит беседа Деточкина с милиционером и тот жалуется на плохой аккумулятор, бордюры то покрашены «в зебру», то нет.

★ В начале фильма закадровый голос автора утверждает, что не известно в каком городе происходят события. Однако, в сцене беседы в пивбаре, Деточкин произносит фразу о том, что после продажи одной из угнанных машин, он вернулся в… Москву. Следовательно, события фильма разворачиваются в Москве.

★ Мамой Деточкина в фильме хотели стать актрисы Зелёная и Мансурова, но наиболее убедительная проба получилась у Любови Добржанской.

★ Специально для съёмок Смоктуновский по настоянию режиссёра сдал на водительские права.

★ На роль Подберёзовикова пробовались Пётр Щербаков, Алексей Эйбоженко, Олег Борисов, Юрий Яковлев (впоследствий он остался в картине, как «голос за кадром»).

★ На роль Димы Семицветова пробовались Юрий Белов и Владимир Балон.






Релиз группы:



   Похожие торренты   Торрент   Размер 
В этой теме нет новых непрочитанных сообщений. Берегись автомобиля (1966) BDRip-HEVC 1080p от FREEISLAND

27 | 13

4.34 ГБ

В этой теме нет новых непрочитанных сообщений. Берегись автомобиля (1966) BDRip-AVC от FREEISLAND

2 | 4

1.73 ГБ

В этой теме нет новых непрочитанных сообщений. Берегись автомобиля (1966) BDRip 1080p от HDClub

29 | 6

9.25 ГБ

В этой теме нет новых непрочитанных сообщений. Берегись автомобиля (1966) BDRip от HQCLUB

524 | 40

1.45 ГБ

В этой теме нет новых непрочитанных сообщений. Берегись автомобиля (1966) BDRip 720p от MediaClub

37 | 7

3.32 ГБ

В этой теме нет новых непрочитанных сообщений. Берегись автомобиля (1966) BDRip 720p от Leonardo and Scarabey

237 | 58

2.38 ГБ

В этой теме нет новых непрочитанных сообщений. Берегись автомобиля (1966) DVDRip

244 | 11

1.37 ГБ




Вы не можете начинать темы
Вы не можете отвечать на сообщения
Вы не можете редактировать свои сообщения
Вы не можете удалять свои сообщения
Вы не можете добавлять вложения

Перейти:  
Для Мосгорсуда, Роскомнадзора и рекламодателей: mosgorsud-torrent[собачка]yandex.ru
 Вход
ppkBB3cker v.2 © 2008-2014 @ PPK
[ Time : 0.073s | 15 Queries | GZIP : Off ]

Торрент трекер RUTOR.IN, Не можете зайти на rutor.org? Какой новый адрес рутор? Какое зеркало рутор? Не работает rutor.org и зеркала? Тогда наш торрент специально для вас. Rutor.in неофициальное зеркало rutor. В случае если у Вас заблокирован rutor или вдруг Вы не можете на него зайти, то Вы без труда сможете скачать бесплатно и без рекламы последние новинки кино, игр, сериалов и прочего у нас, на Rutor.in. Не нужно использовать прокси, чтобы зайти на рутор, достаточно воспользоваться нашим ресурсом. Все новые фильмы, игры, сериалы, книги и музыка за 2013 и 2014 годы через торрент бесплатно. Скачивайте фильмы в хорошем качестве, игры для пк, xbox, playstation без регистрации. У нас вы найдете новые Зарубежные сериалы и Русские сериалы 2013, 2014, 2015 годов. Оставайтесь с нами, качайте любимые фильмы, игры, сериалы, книги и музыку.