img image001 image001 image001 image001 image001 image001 image001 image001 image001 image001 image001 image001 image001 image001 image001

Planets Sun Sun Sun
Статистика раздачи
Автор: Снежана | Размер: 744.67 МБ | Добавлен: 24 июл 2013
Раздают: 10    Качают: 7
Скачать торрент
Скачать торрент
Описание торрента

СообщениеДобавлено: 24 июл 2013 

#77
Страна: СССР
Производство: Гостелерадио, Ленфильм
Жанр: мюзикл, комедия, семейный
Год выпуска: 1970
Продолжительность: 01:04:54

Перевод: не требуется
Оригинальная аудиодорожка: русский
Cубтитры: нет

Режиссер: Наум Бирман

В ролях:
Аркадий Райкин, Людмила Сенчина, Николай Трофимов, Константин Ценкаев, Нина Ургант, Татьяна Доронина, Игорь Королев, Людмила Васютинская, Павел Панков, Анна Лисянская...

Описание:
Волшебная сила искусства - музыкальный фильм режиссёра Наума Бирмана, состоящий из трех новелл.
«Мстители из 2-го В»
В ролях: Людмила Сенчина — учительница; Трофимов, Николай Николаевич — директор школы; Костя Ценкаев — Денис Кораблёв; Мила Васютинская — Алёнка; Игорь Богданов — Мишка
Учеников второго класса ведут в кино на приключенческий фильм. Забыв, что они в кинотеатре, ребята решают помочь «нашим».
«Здравствуй, Пушкин!»
В ролях: Нина Ургант — мама Вовы, Таня Доронина — Света, Игорь Королёв — Вова, Ваня Цанов, Слава Горошенков, Дима Рапопорт
О мальчике, объясняющемся в любви девочке при помощи поэмы Пушкина «Евгений Онегин».
«Волшебная сила искусства»
В ролях: Аркадий Райкин — артист, Павел Панков — Мордатенков, Анна Лисянская — Мордатенкова, Ирина Гошева — Елена Сергеевна Сергеева
Но самая знаменитая новелла — заглавная. Бывший ученик помогает старушке учительнице перевоспитать хамов-соседей по коммуналке. Фразы "Ну что, старый таракан, в лоб захотел? Так я тебе брызну!", "Святое дело, мама с папой"... — стали крылатыми.





Исходник: DVD5 R5
Тип релиза: DVDRip
Контейнер: AVI

Видео: 720x544 (4:3), 25 fps, XviD ~ 1466 kbps avg, 0.150 bit/pixel
Аудио: 48 kHz, MP3 5.1, 128 kbps

Раздача от:
Общее
Полное имя : Volshebnaja.sila.1970.DVDRip-745_[Youtracker]_by_AVP Studio.avi
Формат : AVI
Формат/Информация : Audio Video Interleave
Размер файла : 745 Мбайт
Продолжительность : 1 ч. 4 м.
Общий поток : 1604 Кбит/сек
Программа кодирования : VirtualDubModRus 1.5.10.2 (build 2542/release)
Библиотека кодирования : VirtualDubMod build 2542/release

Видео
Идентификатор : 0
Формат : MPEG-4 Visual
Профиль формата : Advanced Simple@L5
Параметр BVOP формата : 1
Параметр QPel формата : Нет
Параметр GMC формата : Без точки перехода
Параметр матрицы формата : Выборочная
Идентификатор кодека : XVID
Идентификатор кодека/Подсказка : XviD
Продолжительность : 1 ч. 4 м.
Битрейт : 1466 Кбит/сек
Ширина : 720 пикселей
Высота : 544 пикселя
Соотношение сторон : 4:3
Частота кадров : 25,000 кадров/сек
Цветовое пространство : YUV
Субдискретизация насыщенности : 4:2:0
Битовая глубина : 8 бит
Тип развёртки : Прогрессивная
Метод сжатия : С потерями
Бит/(Пиксели*Кадры) : 0.150
Размер потока : 681 Мбайт (91%)
Библиотека кодирования : XviD 65

Аудио
Идентификатор : 1
Формат : MPEG Audio
Версия формата : Version 1
Профиль формата : Layer 3
Идентификатор кодека : 55
Идентификатор кодека/Подсказка : MP3
Продолжительность : 1 ч. 4 м.
Вид битрейта : Постоянный
Битрейт : 128 Кбит/сек
Каналы : 2 канала
Частота : 48,0 КГц
Метод сжатия : С потерями
Размер потока : 59,4 Мбайт (8%)
Выравнивание : Соединение по промежуткам
Продолжительность промежутка : 40 мс. (1,00 видеокадр)
Время предзагрузки промежутка : 504 мс.
Библиотека кодирования : L3.99r
Настройки программы : -m s -V 4 -q 2 -lowpass 17 -b 128





   Похожие торренты   Торрент   Размер 
В этой теме нет новых непрочитанных сообщений. Волшебная сила (1970) DVDRip от Youtracker

299 | 34

1.3 ГБ

В этой теме нет новых непрочитанных сообщений. Волшебная сила (1970) DVDRip-AVC от Youtracker

26 | 12

1.34 ГБ

В этой теме нет новых непрочитанных сообщений. Волшебная сила (1970) DVD5 от Youtracker | custom

4 | 6

3.9 ГБ

В этой теме нет новых непрочитанных сообщений. VA - Волшебная Сила Музыки (2011) MP3

1 | 1

7.75 ГБ

В этой теме нет новых непрочитанных сообщений. Бег (1970) DVDRip от Youtracker

27 | 2

1.46 ГБ

В этой теме нет новых непрочитанных сообщений. Бег (1970) DVDRip-AVC от Youtracker

11 | 3

2.18 ГБ

В этой теме нет новых непрочитанных сообщений. Бег (1970) DVDRip от Youtracker

10 | 4

2.19 ГБ




Вы не можете начинать темы
Вы не можете отвечать на сообщения
Вы не можете редактировать свои сообщения
Вы не можете удалять свои сообщения
Вы не можете добавлять вложения

Перейти:  
Для Мосгорсуда, Роскомнадзора и рекламодателей: mosgorsud-torrent[собачка]yandex.ru
 Вход
ppkBB3cker v.2 © 2008-2014 @ PPK
[ Time : 0.029s | 14 Queries | GZIP : Off ]

Торрент трекер RUTOR.IN, Не можете зайти на rutor.org? Какой новый адрес рутор? Какое зеркало рутор? Не работает rutor.org и зеркала? Тогда наш торрент специально для вас. Rutor.in неофициальное зеркало rutor. В случае если у Вас заблокирован rutor или вдруг Вы не можете на него зайти, то Вы без труда сможете скачать бесплатно и без рекламы последние новинки кино, игр, сериалов и прочего у нас, на Rutor.in. Не нужно использовать прокси, чтобы зайти на рутор, достаточно воспользоваться нашим ресурсом. Все новые фильмы, игры, сериалы, книги и музыка за 2013 и 2014 годы через торрент бесплатно. Скачивайте фильмы в хорошем качестве, игры для пк, xbox, playstation без регистрации. У нас вы найдете новые Зарубежные сериалы и Русские сериалы 2013, 2014, 2015 годов. Оставайтесь с нами, качайте любимые фильмы, игры, сериалы, книги и музыку.