img image001 image001 image001 image001 image001 image001 image001 image001 image001 image001 image001 image001 image001 image001 image001

Planets Sun Sun Sun
Статистика раздачи
Автор: Снежана | Размер: 879.54 МБ | Добавлен: 24 июл 2013
Раздают: 8    Качают: 2
Скачать торрент
Скачать торрент
Описание торрента

СообщениеДобавлено: 24 июл 2013 

#77

Информация о фильме
Название: Жажда над ручьем
Год выхода: 1968
Жанр: Мелодрама
Режиссер: Юрий Калев, Константин Осин
В ролях: Тамара Совчи, Александр Павлов, Анатолий Грачев, Лев Дуров, Виктор Уральский, Владимир Протасенко, Павел Лебешев, Владимир Липпарт, Владимир Агурейкин, Вениамин Филимонов

О фильме:
В поисках интересной жизни Лиза едет не на юг, а в тундру, и устраивается там в помощники к гидрологу поисковой партии Лёше. Вскоре молодые люди решают пожениться. Из-за длительной пурги к ним не ходят гости, время от времени молодожены перебраниваются, к Лизе возвращается хандра — и молодая жена решает уехать…
Format : AVI
Format/Info : Audio Video Interleave
File size : 880 MiB
Duration : 1h 13mn
Overall bit rate : 1 674 Kbps
Writing application : VirtualDubMod 1.5.10.2 (build 2540/release)
Writing library : VirtualDubMod build 2540/release

Video
ID : 0
Format : MPEG-4 Visual
Format profile : Advanced Simple@L5
Format settings, BVOP : 1
Format settings, QPel : No
Format settings, GMC : No warppoints
Format settings, Matrix : Default (MPEG)
Codec ID : XVID
Codec ID/Hint : XviD
Duration : 1h 13mn
Bit rate : 1 536 Kbps
Width : 704 pixels
Height : 304 pixels
Display aspect ratio : 2.35:1
Frame rate : 25.000 fps
Color space : YUV
Chroma subsampling : 4:2:0
Bit depth : 8 bits
Scan type : Progressive
Compression mode : Lossy
Bits/(Pixel*Frame) : 0.287
Stream size : 807 MiB (92%)
Writing library : XviD 1.2.1 (UTC 2008-12-04)

Audio
ID : 1
Format : MPEG Audio
Format version : Version 1
Format profile : Layer 3
Codec ID : 55
Codec ID/Hint : MP3
Duration : 1h 13mn
Bit rate mode : Constant
Bit rate : 128 Kbps
Channel(s) : 2 channels
Sampling rate : 48.0 KHz
Compression mode : Lossy
Stream size : 67.3 MiB (8%)
Alignment : Aligned on interleaves
Interleave, duration : 40 ms (1.00 video frame)
Interleave, preload duration : 504 ms
Writing library : LAME3.98r
Encoding settings : -m s -V 4 -q 2 -lowpass 17 -b 128

Страна: СССР
Студия: Мосфильм
Продолжительность: 01:13:29
Перевод: Не требуется

Файл
Кодек: Xvid
Качество: TVRip
Видео: Xvid 704x304 25fps [Video] Bit rate:1 536 Kbps
Звук: MP3 48000Hz stereo 128kbps [Audio]




   Похожие торренты   Торрент   Размер 
В этой теме нет новых непрочитанных сообщений. Белый рояль (1968) TVRip

44 | 6

980.25 МБ

В этой теме нет новых непрочитанных сообщений. Необыкновенная выставка (1968) TVRip

4 | 4

1.91 ГБ

В этой теме нет новых непрочитанных сообщений. Люди, как реки... (1968) TVRip

7 | 10

719.06 МБ

В этой теме нет новых непрочитанных сообщений. Таинственный монах (1968) TVRip

75 | 70

697.27 МБ

В этой теме нет новых непрочитанных сообщений. Еще раз про любовь (1968) TVRip от Youtracker

21 | 6

1.46 ГБ

В этой теме нет новых непрочитанных сообщений. Встречи на рассвете (1968) TVRip

20 | 10

685.93 МБ

В этой теме нет новых непрочитанных сообщений. Лэсси / Lassie (1968-1978) TVRip

708 | 53

6.07 ГБ




Вы не можете начинать темы
Вы не можете отвечать на сообщения
Вы не можете редактировать свои сообщения
Вы не можете удалять свои сообщения
Вы не можете добавлять вложения

Перейти:  
Для Мосгорсуда, Роскомнадзора и рекламодателей: mosgorsud-torrent[собачка]yandex.ru
 Вход
ppkBB3cker v.2 © 2008-2014 @ PPK
[ Time : 0.042s | 15 Queries | GZIP : Off ]

cron