img image001 image001 image001 image001 image001 image001 image001 image001 image001 image001 image001 image001 image001 image001 image001

Planets Sun Sun Sun
Статистика раздачи
Автор: Снежана | Размер: 3.28 ГБ | Добавлен: 24 июл 2013
Раздают: 7    Качают: 5
Скачать торрент
Скачать торрент
Описание торрента

СообщениеДобавлено: 24 июл 2013 

#77

Информация о фильме
Название: Лето на память
Жанр: экранизация
Год выпуска: 1987
Режиссёр: Юрий Кузьменко
В ролях: Андрей Ростоцкий, Ульяна Лаптева, Анастасия Белова, Зоя Александриди, Максим Кузьменко, Вера Караваева, Михаил Трещалин, Мария Виноградова, Александр Кузнецов, Фёдор Одиноков, Наталья Хорохорина, Александр Ильин, Антон Воропаев, Борис Токарев (II), Владимир Герасимов

Описание:

По мотивам рассказов Аркадия Гайдара "Голубая чашка", "Четвертый блиндаж", "Горячий камень", дневникам и письмам писателя.

Страна: СССР
Продолжительность: 01:04:06 + 01:03:52
Перевод: не требуется

Доп. информация: Запись потока *.ts со спутника EUTELSAT, ремукс в *.mpg программой VideoReDo.

Файл
Качество: DVB
Формат: AVI
Видео: MPEG Video, 720x576 (4 : 3), 25,000 кадров/сек, 3370 Кбит/сек
Аудио: MPEG Audio, 48,0 КГц, 192 Кбит/сек, 2 канала


Общее
Полное имя : D:TorrentЛето на памятьЛето на память 1 (Karusel int).mpg
Формат : MPEG-PS
Размер файла : 1,63 Гбайт
Продолжительность : 1 ч. 4 м.
Режим общего битрейта : Переменный
Общий поток : 3635 Кбит/сек
Видео
Идентификатор : 224 (0xE0)
Формат : MPEG Video
Версия формата : Version 2
Профиль формата : Main@Main
Параметр BVOP формата : Да
Параметр матрицы формата : Выборочная
Параметр GOP формата : M=3, N=12
Продолжительность : 1 ч. 4 м.
Вид битрейта : Переменный
Битрейт : 3370 Кбит/сек
Максимальный битрейт : 5000 Кбит/сек
Ширина : 720 пикселей
Высота : 576 пикселей
Соотношение сторон : 4:3
Частота кадров : 25,000 кадров/сек
Стандарт вещания : PAL
Цветовое пространство : YUV
Субдискретизация насыщенности : 4:2:0
Битовая глубина : 8 бит
Тип развёртки : Чересстрочная
Порядок развёртки : Верхнее поле первое
Метод сжатия : С потерями
Бит/(Пиксели*Кадры) : 0.325
TimeCode_FirstFrame : 00:00:00:00
TimeCode_Source : Group of pictures header
Размер потока : 1,51 Гбайт (93%)
Аудио
Идентификатор : 192 (0xC0)
Формат : MPEG Audio
Версия формата : Version 1
Профиль формата : Layer 2
Продолжительность : 1 ч. 4 м.
Вид битрейта : Постоянный
Битрейт : 192 Кбит/сек
Каналы : 2 канала
Частота : 48,0 КГц
Метод сжатия : С потерями
Размер потока : 88,0 Мбайт (5%)
Полное имя : D:TorrentЛето на памятьЛето на память 2 (Karusel int).mpg
Формат : MPEG-PS
Размер файла : 1,65 Гбайт
Продолжительность : 1 ч. 3 м.
Режим общего битрейта : Переменный
Общий поток : 3703 Кбит/сек
Видео
Идентификатор : 224 (0xE0)
Формат : MPEG Video
Версия формата : Version 2
Профиль формата : Main@Main
Параметр BVOP формата : Да
Параметр матрицы формата : Выборочная
Параметр GOP формата : M=3, N=12
Продолжительность : 1 ч. 3 м.
Вид битрейта : Переменный
Битрейт : 3437 Кбит/сек
Максимальный битрейт : 5000 Кбит/сек
Ширина : 720 пикселей
Высота : 576 пикселей
Соотношение сторон : 4:3
Частота кадров : 25,000 кадров/сек
Стандарт вещания : PAL
Цветовое пространство : YUV
Субдискретизация насыщенности : 4:2:0
Битовая глубина : 8 бит
Тип развёртки : Чересстрочная
Порядок развёртки : Верхнее поле первое
Метод сжатия : С потерями
Бит/(Пиксели*Кадры) : 0.332
TimeCode_FirstFrame : 00:00:00:00
TimeCode_Source : Group of pictures header
Размер потока : 1,53 Гбайт (93%)
Аудио
Идентификатор : 192 (0xC0)
Формат : MPEG Audio
Версия формата : Version 1
Профиль формата : Layer 2
Продолжительность : 1 ч. 3 м.
Вид битрейта : Постоянный
Битрейт : 192 Кбит/сек
Каналы : 2 канала
Частота : 48,0 КГц
Метод сжатия : С потерями
Размер потока : 87,7 Мбайт (5%)




   Похожие торренты   Торрент   Размер 
В этой теме нет новых непрочитанных сообщений. Холодное лето пятьдесят третьего (1987) DVDRip-AVC от New-Team

312 | 40

1.46 ГБ

В этой теме нет новых непрочитанных сообщений. Холодное лето пятьдесят третьего (1987) DVDRip-AVC от ExKinoRay

276 | 19

2.02 ГБ

В этой теме нет новых непрочитанных сообщений. Холодное лето пятьдесят третьего (1987) DVDRip от Scarabey

300 | 49

1.45 ГБ

В этой теме нет новых непрочитанных сообщений. Холодное лето пятьдесят третьего (1987) DVDRip от New-Team

136 | 30

1.46 ГБ

В этой теме нет новых непрочитанных сообщений. Холодное лето пятьдесят третьего (1987) DVDRip от New-Team

54 | 15

744.8 МБ

В этой теме нет новых непрочитанных сообщений. Холодное лето пятьдесят третьего (1987) DVDRip от Scarabey

73 | 14

743.43 МБ

В этой теме нет новых непрочитанных сообщений. Холодное лето пятьдесят третьего (1987) DVDRip от MediaClub | КПК

159 | 7

433.99 МБ




Вы не можете начинать темы
Вы не можете отвечать на сообщения
Вы не можете редактировать свои сообщения
Вы не можете удалять свои сообщения
Вы не можете добавлять вложения

Перейти:  
Для Мосгорсуда, Роскомнадзора и рекламодателей: mosgorsud-torrent[собачка]yandex.ru
 Вход
ppkBB3cker v.2 © 2008-2014 @ PPK
[ Time : 0.660s | 14 Queries | GZIP : Off ]

Торрент трекер RUTOR.IN, Не можете зайти на rutor.org? Какой новый адрес рутор? Какое зеркало рутор? Не работает rutor.org и зеркала? Тогда наш торрент специально для вас. Rutor.in неофициальное зеркало rutor. В случае если у Вас заблокирован rutor или вдруг Вы не можете на него зайти, то Вы без труда сможете скачать бесплатно и без рекламы последние новинки кино, игр, сериалов и прочего у нас, на Rutor.in. Не нужно использовать прокси, чтобы зайти на рутор, достаточно воспользоваться нашим ресурсом. Все новые фильмы, игры, сериалы, книги и музыка за 2013 и 2014 годы через торрент бесплатно. Скачивайте фильмы в хорошем качестве, игры для пк, xbox, playstation без регистрации. У нас вы найдете новые Зарубежные сериалы и Русские сериалы 2013, 2014, 2015 годов. Оставайтесь с нами, качайте любимые фильмы, игры, сериалы, книги и музыку.