img image001 image001 image001 image001 image001 image001 image001 image001 image001 image001 image001 image001 image001 image001 image001

Planets Sun Sun Sun
Статистика раздачи
Автор: Снежана | Размер: 1.31 ГБ | Добавлен: 24 июл 2013
Раздают: 1    Качают: 2
Скачать торрент
Скачать торрент
Описание торрента

СообщениеДобавлено: 24 июл 2013 

#77

Информация о фильме
Название: Раскиданное гнездо
Жанр: драма
Год выпуска: 1981
Режиссёр: Борис Луценко
В ролях: Александр Ткаченок, Антонина Бендова, Ольга Сирина, Александр Франскевич-Лайе, Денис Трушко, Вадим Ледогоров, Геннадий Гарбук, Иван Мацкевич, Анатолий Солоницын, Александр Беспалый, Анатолий Гурьев, Юрий Баталов, Борис Аханов, Григорий Белоцерковский, Алексей Биричевский, Сергей Галуза, Эдуард Горячий, Владимир Грицевский, Николай Табашников-Зорин, Виктор Иваненко, Артём Иноземцев, Михаил Макаров, Александр Кашперов, Фома Воронецкий, Василий Молодцов, Владимир Сичкарь, Олег Федулов, Александр Филатов, Ростислав Шмырёв, Павел Яцковский, Александр Айрапетов, Владимир Матросов

Описание:

По мотивам одноименной пьесы Янки Купалы.
Начало XX века. Огромная беда пришла в крестьянскую семью Лявона Зяблика: задумав строить полотняную фабрику, молодой паныч согнал их с выкупленной земли и разрушил дом, в котором жили отец, мать, два сына и дочь. Каждый из них по-своему попытался справиться с несчастьем. Но появился в селении Неизвестный и позвал обездоленных людей к борьбе. И народ восстал...

Страна: СССР
Продолжительность: 01:12:21
Перевод: не требуется

Доп. информация: Запись потока *.ts со спутника EUTELSAT, ремукс в *.mpg программой VideoReDo.

Файл
Качество: DVB
Формат: MPEG-PS
Видео: MPEG2 Video, 544x576 (4:3), 25,000 кадров/сек, 2422 Кбит/сек
Аудио: MPEG Audio, 48,0 КГц, 192 Кбит/сек, 2 канал


Общее
Полное имя : D:TorrentРаскиданное гнездоРаскиданное гнездо (Belarus TV).mpg
Формат : MPEG-PS
Размер файла : 1,31 Гбайт
Продолжительность : 1 ч. 12 м.
Режим общего битрейта : Переменный
Общий поток : 2602 Кбит/сек
Видео
Идентификатор : 224 (0xE0)
Формат : MPEG Video
Версия формата : Version 2
Профиль формата : Main@Main
Параметр BVOP формата : Да
Параметр матрицы формата : Выборочная
Параметр GOP формата : Variable
Продолжительность : 1 ч. 12 м.
Вид битрейта : Переменный
Битрейт : 2422 Кбит/сек
Максимальный битрейт : 15,0 Мбит/сек
Ширина : 544 пикселя
Высота : 576 пикселей
Соотношение сторон : 4:3
Частота кадров : 25,000 кадров/сек
Цветовое пространство : YUV
Субдискретизация насыщенности : 4:2:0
Битовая глубина : 8 бит
Тип развёртки : Чересстрочная
Порядок развёртки : Верхнее поле первое
Метод сжатия : С потерями
Бит/(Пиксели*Кадры) : 0.309
TimeCode_FirstFrame : 00:00:00:00
TimeCode_Source : Group of pictures header
Размер потока : 1,22 Гбайт (93%)
Аудио
Идентификатор : 192 (0xC0)
Формат : MPEG Audio
Версия формата : Version 1
Профиль формата : Layer 2
Продолжительность : 1 ч. 12 м.
Вид битрейта : Постоянный
Битрейт : 128 Кбит/сек
Каналы : 2 канала
Частота : 48,0 КГц
Метод сжатия : С потерями
Размер потока : 66,2 Мбайт (5%)





   Похожие торренты   Торрент   Размер 
В этой теме нет новых непрочитанных сообщений. Раскиданное гнездо (1981) SATRip от AND03AND

16 | 5

1.07 ГБ

В этой теме нет новых непрочитанных сообщений. Раскиданное гнездо (1981) SATRip от AND03AND

0 | 17

1.35 ГБ

В этой теме нет новых непрочитанных сообщений. Ласточкино гнездо [01-22 из 60] (2011) PDTVRip

2 | 3

5.85 ГБ

В этой теме нет новых непрочитанных сообщений. Ласточкино гнездо [01-12 из 12] (2012) SATRip

66 | 30

5.78 ГБ

В этой теме нет новых непрочитанных сообщений. Ласточкино гнездо [01-12 из 12] (2011) SATRip от MIB

18 | 5

8.19 ГБ

В этой теме нет новых непрочитанных сообщений. Ласточкино гнездо (1-12 из 12) (2012) SATRip-AVC

57 | 34

5.88 ГБ

В этой теме нет новых непрочитанных сообщений. Ласточкино гнездо [01-35] (2011) PDTVRip

15 | 7

9.85 ГБ




Вы не можете начинать темы
Вы не можете отвечать на сообщения
Вы не можете редактировать свои сообщения
Вы не можете удалять свои сообщения
Вы не можете добавлять вложения

Перейти:  
Для Мосгорсуда, Роскомнадзора и рекламодателей: mosgorsud-torrent[собачка]yandex.ru
 Вход
ppkBB3cker v.2 © 2008-2014 @ PPK
[ Time : 0.672s | 14 Queries | GZIP : Off ]

Торрент трекер RUTOR.IN, Не можете зайти на rutor.org? Какой новый адрес рутор? Какое зеркало рутор? Не работает rutor.org и зеркала? Тогда наш торрент специально для вас. Rutor.in неофициальное зеркало rutor. В случае если у Вас заблокирован rutor или вдруг Вы не можете на него зайти, то Вы без труда сможете скачать бесплатно и без рекламы последние новинки кино, игр, сериалов и прочего у нас, на Rutor.in. Не нужно использовать прокси, чтобы зайти на рутор, достаточно воспользоваться нашим ресурсом. Все новые фильмы, игры, сериалы, книги и музыка за 2013 и 2014 годы через торрент бесплатно. Скачивайте фильмы в хорошем качестве, игры для пк, xbox, playstation без регистрации. У нас вы найдете новые Зарубежные сериалы и Русские сериалы 2013, 2014, 2015 годов. Оставайтесь с нами, качайте любимые фильмы, игры, сериалы, книги и музыку.