img image001 image001 image001 image001 image001 image001 image001 image001 image001 image001 image001 image001 image001 image001 image001

Planets Sun Sun Sun
Статистика раздачи
Автор: Снежана | Размер: 1.46 ГБ | Добавлен: 24 июл 2013
Раздают: 119    Качают: 6
Скачать торрент
Скачать торрент
Описание торрента

СообщениеДобавлено: 24 июл 2013 

#77

Информация о фильме
Название: Чайка
Год выпуска: 1970
Жанр: Драма
Режиссер: Юлий Карасик
Композитор: Альфред Шнитке
В ролях: Владимир Четвериков, Алла Демидова, Армен Джигарханян, Ефим Копелян, Николай Плотников, Людмила Савельева, Валентина Теличкина, Юрий Яковлев, Софья Павлова, Сергей Торкачевский, Хенрикас Кураускас.

Описание:

Экранизация знаменитой пьесы А.П.Чехова, детально воспроизводящая все сюжетные перипетии произведения и рисующая конфликт старого и нового укладов на примере жизни обитателей русского дворянского поместья.

Премия за лучшую экранизацию классического произведения и мастерство актерского ансамбля на IX международном кинофестивале в Чикаго, 1973.



Страна: СССР
Продолжительность: 01:34:04
Перевод: Не требуется

Файл
Качество: DVDRip-AVC
Формат: MKV
Видео: AVC (H.264), 712x430@1013x430 (2,35:1), 25 fps, 2031 kbps
Аудио: 48 kHz, AC-3, 2 ch, ~192 kbps


Общее
Уникальный идентификатор : 189108695171076240343263313556736404738 (0x8E450287533AA194A2526BB566CD6D02)
Полное имя : D:ФильмыЧайка (1971).mkv
Формат : Matroska
Версия формата : Version 4 / Version 2
Размер файла : 1,46 Гбайт
Продолжительность : 1 ч. 34 м.
Общий поток : 2224 Кбит/сек
Дата кодирования : UTC 2013-05-26 14:05:20
Программа кодирования : mkvmerge v6.1.0 ('Old Devil') built on Mar 2 2013 14:32:37
Библиотека кодирования : libebml v1.3.0 + libmatroska v1.4.0
Видео
Идентификатор : 1
Формат : AVC
Формат/Информация : Advanced Video Codec
Профиль формата : High@L4.1
Параметр CABAC формата : Да
Параметр ReFrames формата : 6 кадров
Идентификатор кодека : V_MPEG4/ISO/AVC
Продолжительность : 1 ч. 34 м.
Битрейт : 2031 Кбит/сек
Ширина : 712 пикселей
Высота : 430 пикселей
Соотношение сторон : 2,35:1
Соотношение сторон в оригинале : 2,35:1
Частота кадров : 25,000 кадров/сек
Цветовое пространство : YUV
Субдискретизация насыщенности : 4:2:0
Битовая глубина : 8 бит
Тип развёртки : Прогрессивная
Бит/(Пиксели*Кадры) : 0.265
Размер потока : 1,31 Гбайт (89%)
Библиотека кодирования : x264 core 130 r2273 b3065e6
Настройки программы : cabac=1 / ref=6 / deblock=1:-1:-1 / analyse=0x3:0x133 / me=umh / subme=9 / psy=1 / psy_rd=1.00:0.00 / mixed_ref=1 / me_range=32 / chroma_me=1 / trellis=2 / 8x8dct=1 / cqm=0 / deadzone=21,11 / fast_pskip=1 / chroma_qp_offset=-2 / threads=3 / lookahead_threads=1 / sliced_threads=0 / nr=0 / decimate=1 / interlaced=0 / bluray_compat=0 / constrained_intra=0 / bframes=9 / b_pyramid=2 / b_adapt=2 / b_bias=0 / direct=3 / weightb=1 / open_gop=0 / weightp=2 / keyint=250 / keyint_min=25 / scenecut=40 / intra_refresh=0 / rc_lookahead=60 / rc=2pass / mbtree=1 / bitrate=2031 / ratetol=1.0 / qcomp=0.60 / qpmin=0 / qpmax=69 / qpstep=4 / cplxblur=20.0 / qblur=0.5 / ip_ratio=1.40 / aq=1:1.00
Язык : English
Default : Да
Forced : Нет
Аудио
Идентификатор : 2
Формат : AC-3
Формат/Информация : Audio Coding 3
Расширение режима : CM (complete main)
Параметр Endianness формата : Big
Идентификатор кодека : A_AC3
Продолжительность : 1 ч. 34 м.
Вид битрейта : Постоянный
Битрейт : 192 Кбит/сек
Каналы : 2 канала
Расположение каналов : Front: L R
Частота : 48,0 КГц
Битовая глубина : 16 бит
Метод сжатия : С потерями
Размер потока : 129 Мбайт (9%)
Default : Да
Forced : Нет



Спасибо большое Blade1!



   Похожие торренты   Торрент   Размер 
В этой теме нет новых непрочитанных сообщений. Чайка (1970) DVDRip

26 | 7

1.37 ГБ

В этой теме нет новых непрочитанных сообщений. Чайка (2005) DVDRip

101 | 12

1.38 ГБ

В этой теме нет новых непрочитанных сообщений. Черная чайка (1962) DVDRip

26 | 4

1.37 ГБ

В этой теме нет новых непрочитанных сообщений. Чайка по имени Джонатан Ливингстон / Jonathan Livingston Seagull (1973) DVDRip

190 | 4

1.37 ГБ

В этой теме нет новых непрочитанных сообщений. Спектакль. Чайка (2001) CAMRip

1 | 4

1.83 ГБ

В этой теме нет новых непрочитанных сообщений. Спектакль - Чайка (1999) DVB от AND03AND

19 | 34

3.4 ГБ

В этой теме нет новых непрочитанных сообщений. Боцман Чайка [01 из 04] (2014) DVB от Files-x

84 | 9

3.49 ГБ




Вы не можете начинать темы
Вы не можете отвечать на сообщения
Вы не можете редактировать свои сообщения
Вы не можете удалять свои сообщения
Вы не можете добавлять вложения

Перейти:  
Для Мосгорсуда, Роскомнадзора и рекламодателей: mosgorsud-torrent[собачка]yandex.ru
 Вход
ppkBB3cker v.2 © 2008-2014 @ PPK
[ Time : 0.255s | 15 Queries | GZIP : Off ]

Торрент трекер RUTOR.IN, Не можете зайти на rutor.org? Какой новый адрес рутор? Какое зеркало рутор? Не работает rutor.org и зеркала? Тогда наш торрент специально для вас. Rutor.in неофициальное зеркало rutor. В случае если у Вас заблокирован rutor или вдруг Вы не можете на него зайти, то Вы без труда сможете скачать бесплатно и без рекламы последние новинки кино, игр, сериалов и прочего у нас, на Rutor.in. Не нужно использовать прокси, чтобы зайти на рутор, достаточно воспользоваться нашим ресурсом. Все новые фильмы, игры, сериалы, книги и музыка за 2013 и 2014 годы через торрент бесплатно. Скачивайте фильмы в хорошем качестве, игры для пк, xbox, playstation без регистрации. У нас вы найдете новые Зарубежные сериалы и Русские сериалы 2013, 2014, 2015 годов. Оставайтесь с нами, качайте любимые фильмы, игры, сериалы, книги и музыку.
cron