img image001 image001 image001 image001 image001 image001 image001 image001 image001 image001 image001 image001 image001 image001 image001

Planets Sun Sun Sun
Статистика раздачи
Автор: Снежана | Размер: 1.34 ГБ | Добавлен: 24 июл 2013
Раздают: 26    Качают: 12
Скачать торрент
Скачать торрент
Описание торрента

СообщениеДобавлено: 24 июл 2013 

#77
Страна: СССР
Производство: Гостелерадио, Ленфильм
Жанр: мюзикл, комедия, семейный
Год выпуска: 1970
Продолжительность: 01:04:54

Перевод: не требуется
Оригинальная аудиодорожка: русский
Cубтитры: нет

Режиссер: Наум Бирман

В ролях:
Аркадий Райкин, Людмила Сенчина, Николай Трофимов, Константин Ценкаев, Нина Ургант, Татьяна Доронина, Игорь Королев, Людмила Васютинская, Павел Панков, Анна Лисянская...

Описание:
Волшебная сила искусства - музыкальный фильм режиссёра Наума Бирмана, состоящий из трех новелл.
«Мстители из 2-го В»
В ролях: Людмила Сенчина — учительница; Трофимов, Николай Николаевич — директор школы; Костя Ценкаев — Денис Кораблёв; Мила Васютинская — Алёнка; Игорь Богданов — Мишка
Учеников второго класса ведут в кино на приключенческий фильм. Забыв, что они в кинотеатре, ребята решают помочь «нашим».
«Здравствуй, Пушкин!»
В ролях: Нина Ургант — мама Вовы, Таня Доронина — Света, Игорь Королёв — Вова, Ваня Цанов, Слава Горошенков, Дима Рапопорт
О мальчике, объясняющемся в любви девочке при помощи поэмы Пушкина «Евгений Онегин».
«Волшебная сила искусства»
В ролях: Аркадий Райкин — артист, Павел Панков — Мордатенков, Анна Лисянская — Мордатенкова, Ирина Гошева — Елена Сергеевна Сергеева
Но самая знаменитая новелла — заглавная. Бывший ученик помогает старушке учительнице перевоспитать хамов-соседей по коммуналке. Фразы "Ну что, старый таракан, в лоб захотел? Так я тебе брызну!", "Святое дело, мама с папой"... — стали крылатыми.





Исходник: DVD5 R5
Тип релиза: DVDRip-AVC
Контейнер: MKV

Видео: 720->768x572 (4:3), 25 fps, H264 ~ 2500 kbps avg, 0.243 bit/pixel
Аудио: 48 kHz, Dolby AC3 5.1, 448 kbps

Раздача от:
Общее
Полное имя : Volshebnaja.sila.1970.DVDRip-AVC_[Youtracker]_by_AVP Studio.mkv
Формат : Matroska
Версия формата : Version 4 / Version 2
Размер файла : 1,34 Гбайт
Продолжительность : 1 ч. 4 м.
Общий поток : 2950 Кбит/сек
Название фильма : Volshebnaja.sila.1970.DVDRip-AVC_[Youtracker]_by_AVP Studio
Дата кодирования : UTC 2013-06-09 06:07:50
Программа кодирования : mkvmerge v6.2.0 ('Promised Land') built on Apr 28 2013 12:22:01
Библиотека кодирования : libebml v1.3.0 + libmatroska v1.4.0

Видео
Идентификатор : 1
Формат : AVC
Формат/Информация : Advanced Video Codec
Профиль формата : High@L4.1
Параметр CABAC формата : Да
Параметр ReFrames формата : 11 кадров
Идентификатор кодека : V_MPEG4/ISO/AVC
Продолжительность : 1 ч. 4 м.
Битрейт : 2500 Кбит/сек
Ширина : 720 пикселей
Высота : 572 пикселя
Соотношение сторон : 4:3
Частота кадров : 25,000 кадров/сек
Цветовое пространство : YUV
Субдискретизация насыщенности : 4:2:0
Битовая глубина : 8 бит
Тип развёртки : Прогрессивная
Бит/(Пиксели*Кадры) : 0.243
Размер потока : 1,11 Гбайт (83%)
Заголовок : Источник DVD
Библиотека кодирования : x264 core 130 r2273 b3065e6
Настройки программы : cabac=1 / ref=11 / deblock=1:-2:-1 / analyse=0x3:0x113 / me=umh / subme=9 / psy=1 / psy_rd=1.00:0.20 / mixed_ref=1 / me_range=32 / chroma_me=1 / trellis=1 / 8x8dct=1 / cqm=0 / deadzone=21,11 / fast_pskip=0 / chroma_qp_offset=-3 / threads=3 / lookahead_threads=1 / sliced_threads=0 / nr=0 / decimate=0 / interlaced=0 / bluray_compat=0 / constrained_intra=0 / bframes=8 / b_pyramid=2 / b_adapt=2 / b_bias=0 / direct=3 / weightb=1 / open_gop=0 / weightp=2 / keyint=250 / keyint_min=25 / scenecut=40 / intra_refresh=0 / rc_lookahead=60 / rc=2pass / mbtree=1 / bitrate=2500 / ratetol=1.0 / qcomp=0.60 / qpmin=0 / qpmax=69 / qpstep=4 / cplxblur=20.0 / qblur=0.5 / ip_ratio=1.40 / aq=1:1.00
Язык : Russian
Default : Да
Forced : Нет

Аудио
Идентификатор : 2
Формат : AC-3
Формат/Информация : Audio Coding 3
Расширение режима : CM (complete main)
Идентификатор кодека : A_AC3
Продолжительность : 1 ч. 4 м.
Вид битрейта : Постоянный
Битрейт : 448 Кбит/сек
Каналы : 6 каналов
Расположение каналов : Front: L C R, Side: L R, LFE
Частота : 48,0 КГц
Битовая глубина : 16 бит
Метод сжатия : С потерями
Задержка видео : 206 мс.
Размер потока : 208 Мбайт (15%)
Заголовок : Источник DVD
Язык : Russian
Default : Да
Forced : Нет





   Похожие торренты   Торрент   Размер 
В этой теме нет новых непрочитанных сообщений. Волшебная сила (1970) DVDRip от Youtracker

10 | 7

744.67 МБ

В этой теме нет новых непрочитанных сообщений. Волшебная сила (1970) DVDRip от Youtracker

299 | 34

1.3 ГБ

В этой теме нет новых непрочитанных сообщений. Волшебная сила (1970) DVD5 от Youtracker | custom

4 | 6

3.9 ГБ

В этой теме нет новых непрочитанных сообщений. VA - Волшебная Сила Музыки (2011) MP3

1 | 1

7.75 ГБ

В этой теме нет новых непрочитанных сообщений. Бег (1970) DVDRip от Youtracker

10 | 4

2.19 ГБ

В этой теме нет новых непрочитанных сообщений. Бег (1970) DVDRip от Youtracker

27 | 2

1.46 ГБ

В этой теме нет новых непрочитанных сообщений. Бег (1970) DVDRip-AVC от Youtracker

11 | 3

2.18 ГБ




Вы не можете начинать темы
Вы не можете отвечать на сообщения
Вы не можете редактировать свои сообщения
Вы не можете удалять свои сообщения
Вы не можете добавлять вложения

Перейти:  
Для Мосгорсуда, Роскомнадзора и рекламодателей: mosgorsud-torrent[собачка]yandex.ru
 Вход
ppkBB3cker v.2 © 2008-2014 @ PPK
[ Time : 0.111s | 14 Queries | GZIP : Off ]

Торрент трекер RUTOR.IN, Не можете зайти на rutor.org? Какой новый адрес рутор? Какое зеркало рутор? Не работает rutor.org и зеркала? Тогда наш торрент специально для вас. Rutor.in неофициальное зеркало rutor. В случае если у Вас заблокирован rutor или вдруг Вы не можете на него зайти, то Вы без труда сможете скачать бесплатно и без рекламы последние новинки кино, игр, сериалов и прочего у нас, на Rutor.in. Не нужно использовать прокси, чтобы зайти на рутор, достаточно воспользоваться нашим ресурсом. Все новые фильмы, игры, сериалы, книги и музыка за 2013 и 2014 годы через торрент бесплатно. Скачивайте фильмы в хорошем качестве, игры для пк, xbox, playstation без регистрации. У нас вы найдете новые Зарубежные сериалы и Русские сериалы 2013, 2014, 2015 годов. Оставайтесь с нами, качайте любимые фильмы, игры, сериалы, книги и музыку.