img image001 image001 image001 image001 image001 image001 image001 image001 image001 image001 image001 image001 image001 image001 image001

Planets Sun Sun Sun
Статистика раздачи
Автор: Снежана | Размер: 1.37 ГБ | Добавлен: 24 июл 2013
Раздают: 18    Качают: 8
Скачать торрент
Скачать торрент
Описание торрента

СообщениеДобавлено: 24 июл 2013 

#77


Информация о фильме
Оригинальное название: Таинственный узник
Год выхода: 1986
Жанр: Драма, исторический, приключения
Режиссер: Валериу Гажиу
В ролях: Георгий Грыу, Дмитрий Харатьян, Ольга Сирина, Лариса Гузеева, Александр Лазарев, Геннадий Чулков, Ефим Лазарев, Галикс Колчицкий, Валериу Каланча, Александр Клешнин, Галина Сазонова, Валентин Куку-Бужор, Павел Белозеров, Гурам Пирцхалава, Михаил Бадикяну, Михай Курагэу, Серджиу Финити, Виктор Игнат, Константин Константинов, Жан Кукурузак, Александр Сирин, Вадим Вилски, Николае Дарие, Виктор Чутак, Иван Музыка, Николай Устинов

О фильме: По мотивам исторического романа Ольги Форш «Одеты камнем» и документам III отделения императорской канцелярии. История человека, повторившего сто с лишним лет назад в России трагическую судьбу «Железной Маски». До революции о нем ходили только легенды. Только в 20-е годы нашего века узнали, что таинственным узником Петропавловской крепости, который провел 20 лет в одиночной камере, был сын бессарабского дворянина. Двое друзей - юнкера Серж и Михаил - одержимы идеей декабристов сделать Россию свободной от тирании царя. Михаил едет сражаться в рядах повстанцев у Гарибальди за республиканскую Италию. Возвращаясь на родину, при переходе границы он был арестован и препровожден в казематы Алексеевского равелина - самой охраняемой крепости России. Тщетно пытается Серж помочь освободить друга. Теперь вся надежда остается на очаровательную графиню Россети, страстно влюбленную в Михаила.

Страна: СССР
Студия: Молдова Фильм, Совинфильм
Продолжительность: 01:27:01
Язык: Русский
Субтитры: Нет



Файл
Тип релиза: TVRip
Видео: 704x400 (1.76:1), 25 fps, DivX ~2047 kbps avg, 0.29 bit/pixel
Аудио: 48 kHz, AC3 Dolby Digital, 2/0 (L,R) ch, ~192.00 kbps avg

Сэмпл
Общее
Полное имя : D:1АААТаинственный узник.avi
Формат : AVI
Формат/Информация : Audio Video Interleave
Размер файла : 1,37 Гбайт
Продолжительность : 1 ч. 27 м.
Общий поток : 2249 Кбит/сек
Программа кодирования : VirtualDubMod 1.5.10.2 (build 2540/release)
Библиотека кодирования : VirtualDubMod build 2540/release

Видео
Идентификатор : 0
Формат : MPEG-4 Visual
Параметр BVOP формата : 1
Параметр QPel формата : Нет
Параметр GMC формата : Без точки перехода
Параметр матрицы формата : Default (H.263)
Режим смешивания : Сжатый битовый поток
Идентификатор кодека : DX50
Идентификатор кодека/Подсказка : DivX 5
Продолжительность : 1 ч. 27 м.
Битрейт : 2048 Кбит/сек
Ширина : 704 пикселя
Высота : 400 пикселей
Соотношение сторон : 16:9
Частота кадров : 25,000 кадров/сек
Цветовое пространство : YUV
Субдискретизация насыщенности : 4:2:0
Битовая глубина : 8 бит
Тип развёртки : Прогрессивная
Метод сжатия : С потерями
Бит/(Пиксели*Кадры) : 0.291
Размер потока : 1,24 Гбайт (91%)
Библиотека кодирования : DivX 6.8.5 (UTC 2009-08-20)

Аудио
Идентификатор : 1
Формат : AC-3
Формат/Информация : Audio Coding 3
Расширение режима : CM (complete main)
Параметр Endianness формата : Big
Идентификатор кодека : 2000
Продолжительность : 1 ч. 27 м.
Вид битрейта : Постоянный
Битрейт : 192 Кбит/сек
Каналы : 2 канала
Расположение каналов : Front: L R
Частота : 48,0 КГц
Битовая глубина : 16 бит
Метод сжатия : С потерями
Размер потока : 119 Мбайт (9%)
Выравнивание : Разделение по промежуткам
Продолжительность промежутка : 40 мс. (1,00 видеокадр)
Время предзагрузки промежутка : 500 мс.




Релиз:



   Похожие торренты   Торрент   Размер 
В этой теме нет новых непрочитанных сообщений. Таинственный монах (1968) TVRip

75 | 70

697.27 МБ

В этой теме нет новых непрочитанных сообщений. Таинственный сад / Secret Garden [S01] (2010) TVRip

16 | 7

16.77 ГБ

В этой теме нет новых непрочитанных сообщений. Таинственный остров / L'Ile Mysterieuse [e01-06] (1973) TVRip

7 | 6

2.43 ГБ

В этой теме нет новых непрочитанных сообщений. Круговорот (1986) TVRip

3 | 4

764.15 МБ

В этой теме нет новых непрочитанных сообщений. Прорыв (1986) TVRip

17 | 6

1.37 ГБ

В этой теме нет новых непрочитанных сообщений. Повод (1986) TVRip

0 | 62

1.27 ГБ

В этой теме нет новых непрочитанных сообщений. Сражение (1986) TVRip

148 | 12

125.88 МБ




Вы не можете начинать темы
Вы не можете отвечать на сообщения
Вы не можете редактировать свои сообщения
Вы не можете удалять свои сообщения
Вы не можете добавлять вложения

Перейти:  
Для Мосгорсуда, Роскомнадзора и рекламодателей: mosgorsud-torrent[собачка]yandex.ru
 Вход
ppkBB3cker v.2 © 2008-2014 @ PPK
[ Time : 0.025s | 14 Queries | GZIP : Off ]

Торрент трекер RUTOR.IN, Не можете зайти на rutor.org? Какой новый адрес рутор? Какое зеркало рутор? Не работает rutor.org и зеркала? Тогда наш торрент специально для вас. Rutor.in неофициальное зеркало rutor. В случае если у Вас заблокирован rutor или вдруг Вы не можете на него зайти, то Вы без труда сможете скачать бесплатно и без рекламы последние новинки кино, игр, сериалов и прочего у нас, на Rutor.in. Не нужно использовать прокси, чтобы зайти на рутор, достаточно воспользоваться нашим ресурсом. Все новые фильмы, игры, сериалы, книги и музыка за 2013 и 2014 годы через торрент бесплатно. Скачивайте фильмы в хорошем качестве, игры для пк, xbox, playstation без регистрации. У нас вы найдете новые Зарубежные сериалы и Русские сериалы 2013, 2014, 2015 годов. Оставайтесь с нами, качайте любимые фильмы, игры, сериалы, книги и музыку.