img image001 image001 image001 image001 image001 image001 image001 image001 image001 image001 image001 image001 image001 image001 image001

Planets Sun Sun Sun
Статистика раздачи
Автор: Снежана | Размер: 1.46 ГБ | Добавлен: 24 июл 2013
Раздают: 10    Качают: 8
Скачать торрент
Скачать торрент
Описание торрента

СообщениеДобавлено: 24 июл 2013 

#77
Страна: СССР
Производство: Ленфильм
Жанр: криминал
Год выпуска: 1969
Продолжительность: 01:29:46

Перевод: не требуется
Оригинальная аудиодорожка: русский
Cубтитры: нет

Режиссер: Владимир Григорьев

В ролях:
Александр Демьяненко, Альгимантас Масюлис, Ирина Вавилова, Павел Луспекаев, Октавиан Корнич, Михаил Екатерининский, Геннадий Полока, Стяпонас Космаускас...

Описание:
Молодой советский биолог волей обстоятельств вынужден вступить в схватку с… агентами империалистической разведки. Но, как и положено советскому гражданину, он стойко борется с происками врага и выходит победителем...





Исходник: DVD5 R5
Тип релиза: DVDRip
Контейнер: AVI

Видео: 704x320 (2,2:1), 25 fps, XviD ~ 2058 kbps avg, 0.365 bit/pixel
Аудио: 48 kHz, Dolby AC3 2.0, 256 kbps

Раздача от:
Общее
Полное имя : Rokirovka.v.dlinnuju.storonu.1969.DVDRip_[Youtracker]_by_AVP Studio.avi
Формат : AVI
Формат/Информация : Audio Video Interleave
Размер файла : 1,46 Гбайт
Продолжительность : 1 ч. 29 м.
Общий поток : 2324 Кбит/сек
Программа кодирования : VirtualDubModRus 1.5.10.2 (build 2542/release)
Библиотека кодирования : VirtualDubMod build 2542/release

Видео
Идентификатор : 0
Формат : MPEG-4 Visual
Профиль формата : Advanced Simple@L5
Параметр BVOP формата : 1
Параметр QPel формата : Нет
Параметр GMC формата : Без точки перехода
Параметр матрицы формата : Выборочная
Идентификатор кодека : XVID
Идентификатор кодека/Подсказка : XviD
Продолжительность : 1 ч. 29 м.
Битрейт : 2058 Кбит/сек
Ширина : 704 пикселя
Высота : 320 пикселей
Соотношение сторон : 2,2:1
Частота кадров : 25,000 кадров/сек
Цветовое пространство : YUV
Субдискретизация насыщенности : 4:2:0
Битовая глубина : 8 бит
Тип развёртки : Прогрессивная
Метод сжатия : С потерями
Бит/(Пиксели*Кадры) : 0.365
Размер потока : 1,29 Гбайт (89%)
Библиотека кодирования : XviD 65

Аудио
Идентификатор : 1
Формат : AC-3
Формат/Информация : Audio Coding 3
Расширение режима : CM (complete main)
Идентификатор кодека : 2000
Продолжительность : 1 ч. 29 м.
Вид битрейта : Постоянный
Битрейт : 256 Кбит/сек
Каналы : 2 канала
Расположение каналов : Front: L R
Частота : 48,0 КГц
Битовая глубина : 16 бит
Метод сжатия : С потерями
Размер потока : 164 Мбайт (11%)
Выравнивание : Разделение по промежуткам
Продолжительность промежутка : 40 мс. (1,00 видеокадр)
Время предзагрузки промежутка : 500 мс





   Похожие торренты   Торрент   Размер 
В этой теме нет новых непрочитанных сообщений. Рокировка в длинную сторону (1969) DVDRip от Youtracker

7 | 3

745.21 МБ

В этой теме нет новых непрочитанных сообщений. Рокировка в длинную сторону (1969) DVDRip-AVC от Youtracker

3 | 11

743.44 МБ

В этой теме нет новых непрочитанных сообщений. Путешествие по ту сторону Солнца / Doppelganger (1969) DVDRip от ExKinoRay

11 | 10

1.47 ГБ

В этой теме нет новых непрочитанных сообщений. Двойная рокировка 3 / Infernal Affairs III / Mou gaan dou III (2003) HDRip от Youtracker | P | КПК

0 | 2

1020.15 МБ

В этой теме нет новых непрочитанных сообщений. Двойная рокировка 2 / Infernal Affairs II / Mou gaan dou II (2003) HDRip от Youtracker | P | КПК

5 | 6

1.01 ГБ

В этой теме нет новых непрочитанных сообщений. Двойная рокировка / Infernal Affairs / Mou gaan dou (2002) HDRip от Youtracker | КПК

2 | 2

871.81 МБ

В этой теме нет новых непрочитанных сообщений. Путешествие по ту сторону Солнца / Journey To The Far Side of The Sun (1969) BDRip 720p | L1

0 | 2

7.37 ГБ




Вы не можете начинать темы
Вы не можете отвечать на сообщения
Вы не можете редактировать свои сообщения
Вы не можете удалять свои сообщения
Вы не можете добавлять вложения

Перейти:  
Для Мосгорсуда, Роскомнадзора и рекламодателей: mosgorsud-torrent[собачка]yandex.ru
 Вход
ppkBB3cker v.2 © 2008-2014 @ PPK
[ Time : 0.113s | 14 Queries | GZIP : Off ]

Торрент трекер RUTOR.IN, Не можете зайти на rutor.org? Какой новый адрес рутор? Какое зеркало рутор? Не работает rutor.org и зеркала? Тогда наш торрент специально для вас. Rutor.in неофициальное зеркало rutor. В случае если у Вас заблокирован rutor или вдруг Вы не можете на него зайти, то Вы без труда сможете скачать бесплатно и без рекламы последние новинки кино, игр, сериалов и прочего у нас, на Rutor.in. Не нужно использовать прокси, чтобы зайти на рутор, достаточно воспользоваться нашим ресурсом. Все новые фильмы, игры, сериалы, книги и музыка за 2013 и 2014 годы через торрент бесплатно. Скачивайте фильмы в хорошем качестве, игры для пк, xbox, playstation без регистрации. У нас вы найдете новые Зарубежные сериалы и Русские сериалы 2013, 2014, 2015 годов. Оставайтесь с нами, качайте любимые фильмы, игры, сериалы, книги и музыку.