img image001 image001 image001 image001 image001 image001 image001 image001 image001 image001 image001 image001 image001 image001 image001

Planets Sun Sun Sun
Статистика раздачи
Автор: Снежана | Размер: 4.69 ГБ | Добавлен: 24 июл 2013
Раздают: 348    Качают: 18
Скачать торрент
Скачать торрент
Описание торрента

СообщениеДобавлено: 24 июл 2013 

#77

Информация о фильме
Оригинальное название: Обитаемый остров: Фильм первый
Год выхода: 2008
Жанр: Боевик, фэнтези, приключения
Режиссер: Федор Бондарчук
В ролях: Федор Бондарчук, Гоша Куценко, Сергей Гармаш, Сергей Мазаев, Василий Степанов, Алексей Панин, Юлия Снигирь, Петр Федоров, Алексей Серебряков, Анна Михалкова, Андрей Мерзликин, Сергей Барковский
О фильме:
2157 год — эпоха расцвета человеческой цивилизации. Пилоты Группы Свободного Поиска бороздят просторы Вселенной. Главный герой, Максим Камеррер, совершает вынужденную посадку на планете Саракш, но уже через несколько минут его корабль будет уничтожен, а герой окажется узником неизвестной планеты. Вскоре Максим сталкивается с человеческой цивилизацией. Уровень ее развития сопоставим с давно минувшим на Западе ХХ веком. После многолетней ядерной войны на планете царит экологический кризис, в обществе полно социальных проблем, а установившийся мир очень шаток… Максиму предстоит пережить много событий и пройти много испытаний прежде, чем он сможет спасти эту планету…



Страна: Россия
Продолжительность: 02:00:57
Язык: Русский

Файл
Кодек: H.264
Качество: BDRip (AVC) (Blu-Ray Remux (1080p))
Видео: MPEG-4 AVC, 2500 Кбит/с, 1024x436
Звук: AC3, 6 ch, 448 Кбит/с

Общее
Уникальный идентификатор : 230443064574220111389179533240411227101 (0xAD5DB84859CC4DA890625E555A6A03DD)
Полное имя : D:Obitaemiy.ostrov.Dilogiya.2008.2009.x264.BDRip(AVC).ExKinoRyObitaemiy.Ostrov.2008.BDRip.(AVC).ExKinoRay.mkv
Формат : Matroska
Размер файла : 2,49 Гбайт
Продолжительность : 2 ч. 0 м.
Общий поток : 2949 Кбит/сек
Название фильма : Obitaemiy.Ostrov.2008.BDRip.(AVC).ExKinoRay
Дата кодирования : UTC 2013-06-09 21:06:48
Программа кодирования : mkvmerge v4.0.0 ('The Stars were mine') сборка от Jun 6 2010 16:18:42
Библиотека кодирования : libebml v1.0.0 + libmatroska v1.0.0

Видео
Идентификатор : 1
Формат : AVC
Формат/Информация : Advanced Video Codec
Профиль формата : High@L4.1
Параметр CABAC формата : Да
Параметр ReFrames формата : 8 кадров
Параметры GOP формата : M=5, N=6
Идентификатор кодека : V_MPEG4/ISO/AVC
Продолжительность : 2 ч. 0 м.
Битрейт : 2500 Кбит/сек
Ширина : 1024 пикс.
Высота : 436 пикс.
Соотношение сторон : 2,35:1
Частота кадров : 23,976 кадр/сек
Цветовое пространство : YUV
Подвыборка цветности : 4:2:0
Битовая глубина : 8 бит
Тип развёртки : Прогрессивная
Бит/(Пиксели*Кадры) : 0.234
Размер потока : 2,06 Гбайт (83%)
Заголовок : Rip by Enigma-Vladislav71
Библиотека кодирования : x264 core 129 r2245 bc13772
Настройки программы : cabac=1 / ref=8 / deblock=1:-2:-2 / analyse=0x3:0x133 / me=umh / subme=11 / psy=1 / psy_rd=1.00:0.00 / mixed_ref=1 / me_range=48 / chroma_me=1 / trellis=2 / 8x8dct=1 / cqm=0 / deadzone=21,11 / fast_pskip=0 / chroma_qp_offset=-2 / threads=3 / lookahead_threads=1 / sliced_threads=0 / nr=0 / decimate=0 / interlaced=0 / bluray_compat=0 / constrained_intra=0 / bframes=8 / b_pyramid=2 / b_adapt=2 / b_bias=0 / direct=3 / weightb=1 / open_gop=0 / weightp=2 / keyint=240 / keyint_min=23 / scenecut=40 / intra_refresh=0 / rc_lookahead=40 / rc=2pass / mbtree=1 / bitrate=2500 / ratetol=1.0 / qcomp=0.60 / qpmin=10 / qpmax=51 / qpstep=4 / cplxblur=20.0 / qblur=0.5 / ip_ratio=1.40 / aq=2:1.00
Язык : English

Аудио
Идентификатор : 2
Формат : AC-3
Формат/Информация : Audio Coding 3
Расширение режима : CM (complete main)
Идентификатор кодека : A_AC3
Продолжительность : 2 ч. 0 м.
Вид битрейта : Постоянный
Битрейт : 448 Кбит/сек
Каналы : 6 каналов
Расположение каналов : Front: L C R, Side: L R, LFE
Частота : 48,0 КГц
Битовая глубина : 16 бит
Метод сжатия : С потерями
Размер потока : 388 Мбайт (15%)


Семпл



-----------------------------------------------------------------------------------------------------



Информация о фильме
Оригинальное название: Обитаемый остров: Схватка
Год выхода: 2009
Жанр: Боевик, фэнтези, приключения
Режиссер: Федор Бондарчук
В ролях: Гоша Куценко, Федор Бондарчук, Алексей Серебряков, Сергей Гармаш, Петр Федоров, Василий Степанов, Михаил Евланов, Юлия Снигирь, Андрей Мерзликин
О фильме:
2157 год. Человечество создает космическую группу, названную ГСП — группой свободного поиска. Теперь любой землянин, получив космический корабль и зарегистрировав свой маршрут, волен отправиться к звездам. Так и поступает Максим Каммерер, не подозревая, что ему предстоит потерпеть крушение на далекой планете, попасть в плен и оказаться один на один с чужим враждебным миром.



Страна: Россия
Продолжительность: 01:47:07
Язык: Русский

Файл
Кодек: H.264
Качество: BDRip (AVC) (Blu-Ray Remux (1080p))
Видео: MPEG-4 AVC, 2500 Кбит/с, 1024x436
Звук: AC3, 6 ch, 448 Кбит/с
Дата релиза: 10.06.2013

Общее
Уникальный идентификатор : 185381164911489997851957299478998419063 (0x8B771D1902102308AB0AC2C874EA0677)
Полное имя : D:Obitaemiy.ostrov.Dilogiya.2008.2009.x264.BDRip(AVC).ExKinoRyObitaemiy.Ostrov.Shvatka.2009.BDRip.(AVC).ExKinoRay.mkv
Формат : Matroska
Размер файла : 2,19 Гбайт
Продолжительность : 1 ч. 47 м.
Общий поток : 2933 Кбит/сек
Название фильма : Obitaemiy.Ostrov.Shvatka.2009.BDRip.(AVC).ExKinoRay
Дата кодирования : UTC 2013-06-10 10:21:52
Программа кодирования : mkvmerge v4.0.0 ('The Stars were mine') сборка от Jun 6 2010 16:18:42
Библиотека кодирования : libebml v1.0.0 + libmatroska v1.0.0

Видео
Идентификатор : 1
Формат : AVC
Формат/Информация : Advanced Video Codec
Профиль формата : High@L4.1
Параметр CABAC формата : Да
Параметр ReFrames формата : 8 кадров
Параметры GOP формата : M=6, N=13
Идентификатор кодека : V_MPEG4/ISO/AVC
Продолжительность : 1 ч. 47 м.
Битрейт : 2500 Кбит/сек
Ширина : 1024 пикс.
Высота : 436 пикс.
Соотношение сторон : 2,35:1
Частота кадров : 23,976 кадр/сек
Цветовое пространство : YUV
Подвыборка цветности : 4:2:0
Битовая глубина : 8 бит
Тип развёртки : Прогрессивная
Бит/(Пиксели*Кадры) : 0.234
Размер потока : 1,82 Гбайт (83%)
Заголовок : Rip by Enigma-Vladislav71
Библиотека кодирования : x264 core 129 r2245 bc13772
Настройки программы : cabac=1 / ref=8 / deblock=1:-2:-2 / analyse=0x3:0x133 / me=umh / subme=11 / psy=1 / psy_rd=1.00:0.00 / mixed_ref=1 / me_range=48 / chroma_me=1 / trellis=2 / 8x8dct=1 / cqm=0 / deadzone=21,11 / fast_pskip=0 / chroma_qp_offset=-2 / threads=3 / lookahead_threads=1 / sliced_threads=0 / nr=0 / decimate=0 / interlaced=0 / bluray_compat=0 / constrained_intra=0 / bframes=8 / b_pyramid=2 / b_adapt=2 / b_bias=0 / direct=3 / weightb=1 / open_gop=0 / weightp=2 / keyint=240 / keyint_min=23 / scenecut=40 / intra_refresh=0 / rc_lookahead=40 / rc=2pass / mbtree=1 / bitrate=2500 / ratetol=1.0 / qcomp=0.60 / qpmin=10 / qpmax=51 / qpstep=4 / cplxblur=20.0 / qblur=0.5 / ip_ratio=1.40 / aq=2:1.00
Язык : English

Аудио
Идентификатор : 2
Формат : AC-3
Формат/Информация : Audio Coding 3
Расширение режима : CM (complete main)
Идентификатор кодека : A_AC3
Продолжительность : 1 ч. 47 м.
Вид битрейта : Постоянный
Битрейт : 448 Кбит/сек
Каналы : 6 каналов
Расположение каналов : Front: L C R, Side: L R, LFE
Частота : 48,0 КГц
Битовая глубина : 16 бит
Метод сжатия : С потерями
Размер потока : 343 Мбайт (15%)
Язык : Russian


Семпл



Релиз от:

Авторы релиза:



   Похожие торренты   Торрент   Размер 
В этой теме нет новых непрочитанных сообщений. Обитаемый остров: Дилогия (2008-2009) BDRip 720p

191 | 17

8.74 ГБ

В этой теме нет новых непрочитанных сообщений. Обитаемый остров: Фильм первый (2008) BDRip

244 | 11

1.46 ГБ

В этой теме нет новых непрочитанных сообщений. Обитаемый остров: Фильм первый (2008) BDRip от HQCLUB

29 | 5

2.18 ГБ

В этой теме нет новых непрочитанных сообщений. Обитаемый остров: Схватка (2009) BDRip от HQ-VIDEO

105 | 9

2.18 ГБ

В этой теме нет новых непрочитанных сообщений. Робинзон Крузо: Очень обитаемый остров / Robinson Crusoe (2016) BDRip от ExKinoRay | Лицензия

152 | 7

1.46 ГБ

В этой теме нет новых непрочитанных сообщений. Робинзон Крузо: Очень обитаемый остров / Robinson Crusoe (2016) BDRip 720p от ExKinoRay | Лицензия

167 | 12

3.15 ГБ

В этой теме нет новых непрочитанных сообщений. Робинзон Крузо: Очень обитаемый остров / Robinson Crusoe (2016) BDRip 1080p от ExKinoRay | Лицензия

195 | 22

6.58 ГБ




Вы не можете начинать темы
Вы не можете отвечать на сообщения
Вы не можете редактировать свои сообщения
Вы не можете удалять свои сообщения
Вы не можете добавлять вложения

Перейти:  
Для Мосгорсуда, Роскомнадзора и рекламодателей: mosgorsud-torrent[собачка]yandex.ru
 Вход
ppkBB3cker v.2 © 2008-2014 @ PPK
[ Time : 0.017s | 16 Queries | GZIP : On ]

Торрент трекер RUTOR.IN, Не можете зайти на rutor.org? Какой новый адрес рутор? Какое зеркало рутор? Не работает rutor.org и зеркала? Тогда наш торрент специально для вас. Rutor.in неофициальное зеркало rutor. В случае если у Вас заблокирован rutor или вдруг Вы не можете на него зайти, то Вы без труда сможете скачать бесплатно и без рекламы последние новинки кино, игр, сериалов и прочего у нас, на Rutor.in. Не нужно использовать прокси, чтобы зайти на рутор, достаточно воспользоваться нашим ресурсом. Все новые фильмы, игры, сериалы, книги и музыка за 2013 и 2014 годы через торрент бесплатно. Скачивайте фильмы в хорошем качестве, игры для пк, xbox, playstation без регистрации. У нас вы найдете новые Зарубежные сериалы и Русские сериалы 2013, 2014, 2015 годов. Оставайтесь с нами, качайте любимые фильмы, игры, сериалы, книги и музыку.