img image001 image001 image001 image001 image001 image001 image001 image001 image001 image001 image001 image001 image001 image001 image001

Planets Sun Sun Sun
Статистика раздачи
Автор: Снежана | Размер: 1.46 ГБ | Добавлен: 24 июл 2013
Раздают: 68    Качают: 13
Скачать торрент
Скачать торрент
Описание торрента

СообщениеДобавлено: 24 июл 2013 

#77
Страна: СССР
Производство: Мосфильм
Жанр: комедия
Год выпуска: 1968
Продолжительность: 01:22:19

Перевод: не требуется
Оригинальная аудиодорожка: русский
Cубтитры: нет

Режиссер: Эльдар Рязанов

В ролях:
Евгений Леонов, Ирина Скобцева, Валентина Теличкина, Евгений Евстигнеев, Валентина Талызина, Алексей Грибов, Готлиб Ронинсон, Георгий Бурков, Светлана Старикова, Борис Суслов, Антонина Дмитриева, Нина Сазонова, Феликс Яворский, Владимир Гуляев, Екатерина Савинова, Виктор Шульгин, Зоя Исаева, Нина Агапова, Виталий Комиссаров, Виктор Колпаков, Герман Качин, Роман Тындык, Екатерина Мазурова, Вера Бурлакова, Виктор Маркин, Дмитрий Орловский, Владислав Цыганков, Николай Романов, ларина Фролова-Воронцова, Зиновий Гердт (закадровый текст)

Описание:
Молодой фотограф Володя Орешников выигрывает 10000 рублей. Товарищи по работе, не долго думая, организуют общественный суд. Дело в том, что 20 рублей на покупку облигации Орешников тайком взял из кассы взаимопомощи, председателем которой он был… В итоге все насмерть перессорились. Только празднование Нового года примирило сослуживцев…





Исходник: DVB
Тип релиза: SATRip
Контейнер: AVI

Видео: 688x416 (1,654:1), 25 fps, XviD ~ 2332 kbps avg, 0.326 bit/pixel
Аудио: 48 kHz, Dolby AC3 2.0, 192 kbps

Раздача от:
Общее
Полное имя : Zigzag.udachi.1968.SATRip_[Youtracker]_by_AVP Studio.avi
Формат : AVI
Формат/Информация : Audio Video Interleave
Размер файла : 1,46 Гбайт
Продолжительность : 1 ч. 22 м.
Общий поток : 2534 Кбит/сек
Программа кодирования : VirtualDubModRus 1.5.10.2 (build 2542/release)
Библиотека кодирования : VirtualDubMod build 2542/release

Видео
Идентификатор : 0
Формат : MPEG-4 Visual
Профиль формата : Advanced Simple@L5
Параметр BVOP формата : 1
Параметр QPel формата : Нет
Параметр GMC формата : Без точки перехода
Параметр матрицы формата : Выборочная
Идентификатор кодека : XVID
Идентификатор кодека/Подсказка : XviD
Продолжительность : 1 ч. 22 м.
Битрейт : 2332 Кбит/сек
Ширина : 688 пикселей
Высота : 416 пикселей
Соотношение сторон : 1,654
Частота кадров : 25,000 кадров/сек
Цветовое пространство : YUV
Субдискретизация насыщенности : 4:2:0
Битовая глубина : 8 бит
Тип развёртки : Прогрессивная
Метод сжатия : С потерями
Бит/(Пиксели*Кадры) : 0.326
Размер потока : 1,34 Гбайт (92%)
Библиотека кодирования : XviD 65

Аудио
Идентификатор : 1
Формат : AC-3
Формат/Информация : Audio Coding 3
Расширение режима : CM (complete main)
Идентификатор кодека : 2000
Продолжительность : 1 ч. 22 м.
Вид битрейта : Постоянный
Битрейт : 192 Кбит/сек
Каналы : 2 канала
Расположение каналов : Front: L R
Частота : 48,0 КГц
Битовая глубина : 16 бит
Метод сжатия : С потерями
Размер потока : 113 Мбайт (8%)
Выравнивание : Разделение по промежуткам
Продолжительность промежутка : 40 мс. (1,00 видеокадр)
Время предзагрузки промежутка : 500 мс





   Похожие торренты   Торрент   Размер 
В этой теме нет новых непрочитанных сообщений. Зигзаг удачи (1968) SATRip от Youtracker

48 | 10

744.92 МБ

В этой теме нет новых непрочитанных сообщений. Зигзаг удачи (1968) SATRip-AVC от Youtracker

10 | 6

744.18 МБ

В этой теме нет новых непрочитанных сообщений. Зигзаг удачи (1968) SATRip-AVC от ExKinoRay

230 | 37

1.38 ГБ

В этой теме нет новых непрочитанных сообщений. Зигзаг удачи (1968) DVD5

359 | 12

3.94 ГБ

В этой теме нет новых непрочитанных сообщений. Зигзаг удачи (1968) DVDRip - LTarik

201 | 19

1.37 ГБ

В этой теме нет новых непрочитанных сообщений. Семь стариков и одна девушка (1968) SATRip от Youtracker

48 | 8

1.42 ГБ

В этой теме нет новых непрочитанных сообщений. Джентльмены, удачи! (2012) DVD9 R5 от Youtracker | P

27 | 3

6.92 ГБ




Вы не можете начинать темы
Вы не можете отвечать на сообщения
Вы не можете редактировать свои сообщения
Вы не можете удалять свои сообщения
Вы не можете добавлять вложения

Перейти:  
Для Мосгорсуда, Роскомнадзора и рекламодателей: mosgorsud-torrent[собачка]yandex.ru
 Вход
ppkBB3cker v.2 © 2008-2014 @ PPK
[ Time : 1.175s | 13 Queries | GZIP : Off ]
CGP output time : 0.046s | 5 Queries | GZIP : Off

Торрент трекер RUTOR.IN, Не можете зайти на rutor.org? Какой новый адрес рутор? Какое зеркало рутор? Не работает rutor.org и зеркала? Тогда наш торрент специально для вас. Rutor.in неофициальное зеркало rutor. В случае если у Вас заблокирован rutor или вдруг Вы не можете на него зайти, то Вы без труда сможете скачать бесплатно и без рекламы последние новинки кино, игр, сериалов и прочего у нас, на Rutor.in. Не нужно использовать прокси, чтобы зайти на рутор, достаточно воспользоваться нашим ресурсом. Все новые фильмы, игры, сериалы, книги и музыка за 2013 и 2014 годы через торрент бесплатно. Скачивайте фильмы в хорошем качестве, игры для пк, xbox, playstation без регистрации. У нас вы найдете новые Зарубежные сериалы и Русские сериалы 2013, 2014, 2015 годов. Оставайтесь с нами, качайте любимые фильмы, игры, сериалы, книги и музыку.