img image001 image001 image001 image001 image001 image001 image001 image001 image001 image001 image001 image001 image001 image001 image001

Planets Sun Sun Sun
Статистика раздачи
Автор: Снежана | Размер: 1.45 ГБ | Добавлен: 24 июл 2013
Раздают: 419    Качают: 30
Скачать торрент
Скачать торрент
Описание торрента

СообщениеДобавлено: 24 июл 2013 

#77
Страна: СССР
Производство: Студия Горького
Жанр: мюзикл, мелодрама, семейный
Год выпуска: 1967
Продолжительность: 01:20:58

Перевод: не требуется
Оригинальная аудиодорожка: русский
Cубтитры: нет

Режиссер: Александр Роу

В ролях:
Наталья Седых, Алексей Катышев, Георгий Милляр, Вера Алтайская, Михаил Пуговкин, Лев Потемкин, Александр Хвыля, Анатолий Кубацкий, Леонид Харитонов, Муза Крепкогорская, Алексей Смирнов...

Описание:
Герой фильма как-то отправляется в лес, чтобы жечь уголь. И там, на полянке, ему повстречалась Аленушка, которая пасла своего козленка. Но слуги Кащея Бессмертного похитили девушку прямо на глазах у Васи. В поисках возлюбленной Вася в буквальном смысле проходит сквозь огонь и воду. Но труднее всего устоять перед медными трубами, перед сверкающим сиянием славы…





Исходник: DVD9 R5
Тип релиза: DVDRip-AVC
Контейнер: MKV

Видео: 696x390 (2,35:1), 25 fps, H264 ~ 1223 kbps avg, 0.180 bit/pixel
Аудио: 48 kHz, Dolby AC3 5.1, 448 kbps Русский
Аудио: 48 kHz, Dolby AC3 5.1, 448 kbps Английский
Аудио: 48 kHz, Dolby AC3 5.1, 448 kbps Французский

Раздача от:
Общее
Полное имя : Ogon',voda.i...mednye.truby.1967.DVDRip-AVC_[Youtracker]_by_AVP Studio.mkv
Формат : Matroska
Версия формата : Version 4 / Version 2
Размер файла : 1,45 Гбайт
Продолжительность : 1 ч. 20 м.
Общий поток : 2569 Кбит/сек
Название фильма : Ogon',voda.i...mednye.truby.1967.DVDRip-AVC_[Youtracker]_by_AVP Studio
Дата кодирования : UTC 2013-06-13 14:05:15
Программа кодирования : mkvmerge v6.2.0 ('Promised Land') built on Apr 28 2013 12:22:01
Библиотека кодирования : libebml v1.3.0 + libmatroska v1.4.0

Видео
Идентификатор : 1
Формат : AVC
Формат/Информация : Advanced Video Codec
Профиль формата : High@L4.1
Параметр CABAC формата : Да
Параметр ReFrames формата : 11 кадров
Идентификатор кодека : V_MPEG4/ISO/AVC
Продолжительность : 1 ч. 20 м.
Битрейт : 1223 Кбит/сек
Ширина : 696 пикселей
Высота : 390 пикселей
Соотношение сторон : 2,35:1
Соотношение сторон в оригинале : 2,35:1
Частота кадров : 25,000 кадров/сек
Цветовое пространство : YUV
Субдискретизация насыщенности : 4:2:0
Битовая глубина : 8 бит
Тип развёртки : Прогрессивная
Бит/(Пиксели*Кадры) : 0.180
Размер потока : 680 Мбайт (46%)
Заголовок : Источник DVD
Библиотека кодирования : x264 core 130 r2273 b3065e6
Настройки программы : cabac=1 / ref=11 / deblock=1:-2:-1 / analyse=0x3:0x113 / me=umh / subme=9 / psy=1 / psy_rd=1.00:0.20 / mixed_ref=1 / me_range=32 / chroma_me=1 / trellis=1 / 8x8dct=1 / cqm=0 / deadzone=21,11 / fast_pskip=0 / chroma_qp_offset=-3 / threads=3 / lookahead_threads=1 / sliced_threads=0 / nr=0 / decimate=0 / interlaced=0 / bluray_compat=0 / constrained_intra=0 / bframes=8 / b_pyramid=2 / b_adapt=2 / b_bias=0 / direct=3 / weightb=1 / open_gop=0 / weightp=2 / keyint=250 / keyint_min=25 / scenecut=40 / intra_refresh=0 / rc_lookahead=60 / rc=2pass / mbtree=1 / bitrate=1223 / ratetol=1.0 / qcomp=0.60 / qpmin=0 / qpmax=69 / qpstep=4 / cplxblur=20.0 / qblur=0.5 / ip_ratio=1.40 / aq=1:1.00
Язык : Russian
Default : Да
Forced : Нет

Аудио #1
Идентификатор : 2
Формат : AC-3
Формат/Информация : Audio Coding 3
Расширение режима : CM (complete main)
Идентификатор кодека : A_AC3
Продолжительность : 1 ч. 20 м.
Вид битрейта : Постоянный
Битрейт : 448 Кбит/сек
Каналы : 6 каналов
Расположение каналов : Front: L C R, Side: L R, LFE
Частота : 48,0 КГц
Битовая глубина : 16 бит
Метод сжатия : С потерями
Размер потока : 259 Мбайт (17%)
Заголовок : Источник DVD Dolby Digital 5,1
Язык : Russian
Default : Да
Forced : Нет

Аудио #2
Идентификатор : 3
Формат : AC-3
Формат/Информация : Audio Coding 3
Расширение режима : CM (complete main)
Идентификатор кодека : A_AC3
Продолжительность : 1 ч. 20 м.
Вид битрейта : Постоянный
Битрейт : 448 Кбит/сек
Каналы : 6 каналов
Расположение каналов : Front: L C R, Side: L R, LFE
Частота : 48,0 КГц
Битовая глубина : 16 бит
Метод сжатия : С потерями
Размер потока : 259 Мбайт (17%)
Заголовок : Источник DVD Dolby Digital 5,1
Язык : English
Default : Нет
Forced : Нет

Аудио #3
Идентификатор : 4
Формат : AC-3
Формат/Информация : Audio Coding 3
Расширение режима : CM (complete main)
Идентификатор кодека : A_AC3
Продолжительность : 1 ч. 20 м.
Вид битрейта : Постоянный
Битрейт : 448 Кбит/сек
Каналы : 6 каналов
Расположение каналов : Front: L C R, Side: L R, LFE
Частота : 48,0 КГц
Битовая глубина : 16 бит
Метод сжатия : С потерями
Размер потока : 259 Мбайт (17%)
Заголовок : Источник DVD Dolby Digital 5,1
Язык : French
Default : Нет
Forced : Нет

Меню
00:00:00.000 : ru:00:00:00.000000000
00:05:00.000 : :00:05:00.000000000
00:10:00.000 : :00:10:00.000000000
00:15:00.000 : :00:15:00.000000000
00:20:00.000 : :00:20:00.000000000
00:25:00.000 : :00:25:00.000000000
00:30:00.000 : :00:30:00.000000000
00:35:00.000 : :00:35:00.000000000
00:40:00.000 : :00:40:00.000000000
00:45:00.000 : :00:45:00.000000000
00:50:00.000 : :00:50:00.000000000
00:55:00.000 : :00:55:00.000000000
01:00:00.000 : :01:00:00.000000000
01:05:00.000 : :01:05:00.000000000
01:10:00.000 : :01:10:00.000000000
01:15:00.000 : :01:15:00.000000000





   Похожие торренты   Торрент   Размер 
В этой теме нет новых непрочитанных сообщений. Огонь, вода и ... медные трубы (1967) DVDRip от Youtracker

50 | 5

745.66 МБ

В этой теме нет новых непрочитанных сообщений. Огонь, вода и ... медные трубы (1967) DVDRip от Youtracker

100 | 18

1.46 ГБ

В этой теме нет новых непрочитанных сообщений. Огонь, вода и... медные трубы (1968) DVD9

34 | 5

7.51 ГБ

В этой теме нет новых непрочитанных сообщений. Сказки Александра Роу: Варвара-краса, длинная коса; Золотые рога; Огонь, вода и ... медные трубы (1968-1972) DVD5

83 | 21

4.17 ГБ

В этой теме нет новых непрочитанных сообщений. Огонь на поражение / The Shooting (1967) DVDRip

3 | 2

1.37 ГБ

В этой теме нет новых непрочитанных сообщений. Вода и Огонь / Su ve Ates (2013) HDRip | L1

192 | 66

1.46 ГБ

В этой теме нет новых непрочитанных сообщений. Вода и огонь / Water and Fire (2013) BDRip-AVC | L1

131 | 22

1.98 ГБ




Вы не можете начинать темы
Вы не можете отвечать на сообщения
Вы не можете редактировать свои сообщения
Вы не можете удалять свои сообщения
Вы не можете добавлять вложения

Перейти:  
Для Мосгорсуда, Роскомнадзора и рекламодателей: mosgorsud-torrent[собачка]yandex.ru
 Вход
ppkBB3cker v.2 © 2008-2014 @ PPK
[ Time : 0.022s | 14 Queries | GZIP : Off ]
CGP output time : 0.043s | 5 Queries | GZIP : Off

Торрент трекер RUTOR.IN, Не можете зайти на rutor.org? Какой новый адрес рутор? Какое зеркало рутор? Не работает rutor.org и зеркала? Тогда наш торрент специально для вас. Rutor.in неофициальное зеркало rutor. В случае если у Вас заблокирован rutor или вдруг Вы не можете на него зайти, то Вы без труда сможете скачать бесплатно и без рекламы последние новинки кино, игр, сериалов и прочего у нас, на Rutor.in. Не нужно использовать прокси, чтобы зайти на рутор, достаточно воспользоваться нашим ресурсом. Все новые фильмы, игры, сериалы, книги и музыка за 2013 и 2014 годы через торрент бесплатно. Скачивайте фильмы в хорошем качестве, игры для пк, xbox, playstation без регистрации. У нас вы найдете новые Зарубежные сериалы и Русские сериалы 2013, 2014, 2015 годов. Оставайтесь с нами, качайте любимые фильмы, игры, сериалы, книги и музыку.