img image001 image001 image001 image001 image001 image001 image001 image001 image001 image001 image001 image001 image001 image001 image001

Planets Sun Sun Sun
Статистика раздачи
Автор: Снежана | Размер: 749.9 МБ | Добавлен: 24 июл 2013
Раздают: 5    Качают: 9
Скачать торрент
Скачать торрент
Описание торрента

СообщениеДобавлено: 24 июл 2013 

#77
Страна: СССР
Производство: Ленфильм
Жанр: драма, криминал, приключения
Год выпуска: 1968
Продолжительность: 02:10:38 (01:06:16 + 01:04:22)

Перевод: не требуется
Оригинальная аудиодорожка: русский
Cубтитры: нет

Режиссер: Савва Кулиш

В ролях:
Донатас Банионис, Ролан Быков, Геннадий Юхтин, Сергей Курилов, Юри Ярвет, Владимир Эренберг, Антс Эскола, Эйнари Коппель, Маири (Майр) Раус, Анда Зайце, Бруно Фрейндлих, Леонхард Мерзин, Николай Засеев-Руденко, Светлана Коркошко, Степан Крылов, Хейно Мандри, Вадим Медведев, Витаутас Томкус, Август (Аугустас) Балтрушайтис, Антс Лаутер, Яан Тооминг...

Описание:
В аэропорту одной из европейских стран убит связной между доктором Хаасом и западногерманской разведкой. В кармане убитого обнаружена шифровка о закупке сырья для массового производства газа Эр-Эйч. Необходимо пояснить следующее: в одном из западных курортных городков под вывеской фармацевтического центра немецкий военный преступник доктор Хаас заканчивает работу над новым психо-химическим оружием — газом Эр-Эйч.
Возможности газа таковы, что в малых дозах он стимулирует интеллектуальный потенциал человека, в больших — превращает его в радостного идиота и трудягу-робота. Делом Хааса занимается советский разведчик полковник Константин Тимофеевич Ладейников. Основная сложность в том, что Ладейников попал в поле зрения спецслужб, но разведчик просит разрешения у своего руководства остаться в стране и продолжить работу.
Но у Ладейникова нет портрета Хааса. Необходим человек, способный его опознать. Руководство КГБ обращается к актеру детского театра, отца двоих детей Ивану Павловичу Савушкину с просьбой составить портрет Хааса. В 1944 году Савушкин бежал из фашистского концлагеря, где Хаас проводил свои смертельные эксперименты, превращая людей в лишенных смысла животных. Со временем Савушкин понимает, как много зависит от него в операции с Хаасом и соглашается отправиться на помощь Ладейникову. К тому же он прекрасно знает немецкий язык.…





Исходник: DVD9 R5
Тип релиза: DVDRip
Контейнер: AVI

Видео: 640x272 (2,35:1), 25 fps, XviD ~ 665 kbps avg, 0.153 bit/pixel
Аудио: 48 kHz, MP3 2.0, 128 kbps

Раздача от:
Общее
Полное имя : Mertvyj.sezon.1968.DVDRip-745_[Youtracker]_by_AVP Studio.avi
Формат : AVI
Формат/Информация : Audio Video Interleave
Размер файла : 750 Мбайт
Продолжительность : 2 ч. 10 м.
Общий поток : 802 Кбит/сек
Программа кодирования : VirtualDubModRus 1.5.10.2 (build 2542/release)
Библиотека кодирования : VirtualDubMod build 2542/release

Видео
Идентификатор : 0
Формат : MPEG-4 Visual
Профиль формата : Advanced Simple@L5
Параметр BVOP формата : 1
Параметр QPel формата : Нет
Параметр GMC формата : Без точки перехода
Параметр матрицы формата : Выборочная
Идентификатор кодека : XVID
Идентификатор кодека/Подсказка : XviD
Продолжительность : 2 ч. 10 м.
Битрейт : 665 Кбит/сек
Ширина : 640 пикселей
Высота : 272 пикселя
Соотношение сторон : 2,35:1
Частота кадров : 25,000 кадров/сек
Цветовое пространство : YUV
Субдискретизация насыщенности : 4:2:0
Битовая глубина : 8 бит
Тип развёртки : Прогрессивная
Метод сжатия : С потерями
Бит/(Пиксели*Кадры) : 0.153
Размер потока : 621 Мбайт (83%)
Библиотека кодирования : XviD 65

Аудио
Идентификатор : 1
Формат : MPEG Audio
Версия формата : Version 1
Профиль формата : Layer 3
Идентификатор кодека : 55
Идентификатор кодека/Подсказка : MP3
Продолжительность : 2 ч. 10 м.
Вид битрейта : Постоянный
Битрейт : 128 Кбит/сек
Каналы : 2 канала
Частота : 48,0 КГц
Метод сжатия : С потерями
Размер потока : 120 Мбайт (16%)
Выравнивание : Соединение по промежуткам
Продолжительность промежутка : 40 мс. (1,00 видеокадр)
Время предзагрузки промежутка : 504 мс.
Библиотека кодирования : L3.99r
Настройки программы : -m s -V 4 -q 2 -lowpass 17 -b 128





   Похожие торренты   Торрент   Размер 
В этой теме нет новых непрочитанных сообщений. Мертвый сезон (1968) DVDRip-AVC от Youtracker

27 | 8

1.46 ГБ

В этой теме нет новых непрочитанных сообщений. Мертвый сезон (1968) DVDRip

196 | 16

1.46 ГБ

В этой теме нет новых непрочитанных сообщений. Мертвый сезон (1968) DVDRip от New-Team

250 | 18

2.19 ГБ

В этой теме нет новых непрочитанных сообщений. Мертвый сезон / Out of Season (1975) DVDRip | P2

80 | 59

1.46 ГБ

В этой теме нет новых непрочитанных сообщений. Мертвый сезон / Dead Season (2012) DVDRip | L1

0 | 1

701.47 МБ

В этой теме нет новых непрочитанных сообщений. Мертвый сезон / Dead Season (2012) DVDRip | L1

70 | 1

1.46 ГБ

В этой теме нет новых непрочитанных сообщений. Мертвый сезон / Dead Season (2012) DVDRip | L1

0 | 1

1.36 ГБ




Вы не можете начинать темы
Вы не можете отвечать на сообщения
Вы не можете редактировать свои сообщения
Вы не можете удалять свои сообщения
Вы не можете добавлять вложения

Перейти:  
Для Мосгорсуда, Роскомнадзора и рекламодателей: mosgorsud-torrent[собачка]yandex.ru
 Вход
ppkBB3cker v.2 © 2008-2014 @ PPK
[ Time : 0.029s | 14 Queries | GZIP : Off ]

Торрент трекер RUTOR.IN, Не можете зайти на rutor.org? Какой новый адрес рутор? Какое зеркало рутор? Не работает rutor.org и зеркала? Тогда наш торрент специально для вас. Rutor.in неофициальное зеркало rutor. В случае если у Вас заблокирован rutor или вдруг Вы не можете на него зайти, то Вы без труда сможете скачать бесплатно и без рекламы последние новинки кино, игр, сериалов и прочего у нас, на Rutor.in. Не нужно использовать прокси, чтобы зайти на рутор, достаточно воспользоваться нашим ресурсом. Все новые фильмы, игры, сериалы, книги и музыка за 2013 и 2014 годы через торрент бесплатно. Скачивайте фильмы в хорошем качестве, игры для пк, xbox, playstation без регистрации. У нас вы найдете новые Зарубежные сериалы и Русские сериалы 2013, 2014, 2015 годов. Оставайтесь с нами, качайте любимые фильмы, игры, сериалы, книги и музыку.