img image001 image001 image001 image001 image001 image001 image001 image001 image001 image001 image001 image001 image001 image001 image001

Planets Sun Sun Sun
Статистика раздачи
Автор: Снежана | Размер: 4.05 ГБ | Добавлен: 24 июл 2013
Раздают: 2    Качают: 5
Скачать торрент
Скачать торрент
Описание торрента

СообщениеДобавлено: 24 июл 2013 

#77

Информация о фильме
Оригинальное название: Ты сверху, я снизу
Год выхода: 2007
Жанр: Мелодрама
Режиссер: Николай Денисов
В ролях: Алла Фомичева, Сергей Шнырев, Владимир Литвинов, Ольга Долинина, Олег Комаров, Марина Голуб, Ольга Науменко, Николай Денисов

О фильме: Они соседи по подъезду. Юля — студентка иняза. Костя — уже известный кутюрье. Она влюблена в него, а он влюблен в свою приму, топ-модель. И это трагедия Юлиной жизни. Но все было бы слишком просто, если бы не появился в этой истории кто-то четвертый. Кого выберет Костя? С кем останется Юля?

Страна: Россия
Студия: PROFILM COMPANY
Продолжительность: 01:41:37
Язык: Русский


Файл
Кодек: MPEG-2
Качество: DVD-5
Видео: PAL 4:3 (720x576) VBR
Звук: Русский (Dolby AC3, 2 ch)



Title: Локальный диск
Size: 4.05 Gb ( 4 247 956 KBytes ) - DVD-5
Enabled regions: 1, 2, 3, 4, 5, 6, 7, 8

VTS_01 :
Play Length: 01:41:04+00:00:33
Video: PAL 4:3 (720x576) VBR
Audio:
Azerbaijani (Dolby AC3, 2 ch)

Menu Video:
PAL 4:3 (720x576) VBR
Menu English Language Unit :
Root Menu


Общее
Полное имя : D:1АААТы сверху, я снизуVIDEO_TSVTS_01_1.VOB
Формат : MPEG-PS
Размер файла : 1000 Мбайт
Продолжительность : 24 м.
Режим общего битрейта : Переменный
Общий поток : 5712 Кбит/сек
Библиотека кодирования : (c) 1998-2009 Womble Multimedia, Inc. / MPEG Video Wizard (03/2009) / Nov 26 2009

Видео
Идентификатор : 224 (0xE0)
Формат : MPEG Video
Версия формата : Version 2
Профиль формата : Main@Main
Параметр BVOP формата : Да
Параметр матрицы формата : Выборочная
Параметр GOP формата : Variable
Продолжительность : 24 м.
Вид битрейта : Переменный
Битрейт : 5374 Кбит/сек
Максимальный битрейт : 8000 Кбит/сек
Ширина : 720 пикселей
Высота : 576 пикселей
Соотношение сторон : 4:3
Частота кадров : 25,000 кадров/сек
Стандарт вещания : PAL
Цветовое пространство : YUV
Субдискретизация насыщенности : 4:2:0
Битовая глубина : 8 бит
Тип развёртки : Чересстрочная
Порядок развёртки : Верхнее поле первое
Метод сжатия : С потерями
Бит/(Пиксели*Кадры) : 0.518
TimeCode_FirstFrame : 00:00:00:00
TimeCode_Source : Group of pictures header
Размер потока : 941 Мбайт (94%)
Библиотека кодирования : (c) 1998-2009 Womble Multimedia, Inc. / MPEG Video Wizard (03/2009) / Nov 26 2009
Основные цвета : BT.601 PAL
Характеристики трансфера : BT.470 System B, BT.470 System G
Коэффициенты матрицы : BT.601

Аудио
Идентификатор : 189 (0xBD)-128 (0x80)
Формат : AC-3
Формат/Информация : Audio Coding 3
Расширение режима : CM (complete main)
Параметр Endianness формата : Big
Режим смешивания : DVD-Video
Продолжительность : 24 м.
Вид битрейта : Постоянный
Битрейт : 224 Кбит/сек
Каналы : 2 канала
Расположение каналов : Front: L R
Частота : 48,0 КГц
Битовая глубина : 16 бит
Метод сжатия : С потерями
Размер потока : 39,2 Мбайт (4%)

Меню





   Похожие торренты   Торрент   Размер 
В этой теме нет новых непрочитанных сообщений. Ты сверху, я снизу (2007) DVDRip

3 | 12

1.41 ГБ

В этой теме нет новых непрочитанных сообщений. Ты сверху, я снизу (2007) DVDRip от MediaClub

1 | 3

1.37 ГБ

В этой теме нет новых непрочитанных сообщений. Трое сверху 2. Новые отношения [02x11] (2007) SATRip

1 | 44

201.01 МБ

В этой теме нет новых непрочитанных сообщений. Трое сверху 2. Новые отношения [02x01-10] (2007) SATRip

0 | 44

1.03 ГБ

В этой теме нет новых непрочитанных сообщений. Взгляд сверху: Крепость Британии / Sky View: Fortress Britain (2007) HDTV

0 | 2

2.28 ГБ

В этой теме нет новых непрочитанных сообщений. Эй, вы там снизу! / Hello Down There (1969) DVDRip | P

6 | 0

1.45 ГБ

В этой теме нет новых непрочитанных сообщений. СВЕРХУ - Аудиояд (2016) MP3

20 | 3

67.98 МБ




Вы не можете начинать темы
Вы не можете отвечать на сообщения
Вы не можете редактировать свои сообщения
Вы не можете удалять свои сообщения
Вы не можете добавлять вложения

Перейти:  
Для Мосгорсуда, Роскомнадзора и рекламодателей: mosgorsud-torrent[собачка]yandex.ru
 Вход
ppkBB3cker v.2 © 2008-2014 @ PPK
[ Time : 0.041s | 16 Queries | GZIP : Off ]

Торрент трекер RUTOR.IN, Не можете зайти на rutor.org? Какой новый адрес рутор? Какое зеркало рутор? Не работает rutor.org и зеркала? Тогда наш торрент специально для вас. Rutor.in неофициальное зеркало rutor. В случае если у Вас заблокирован rutor или вдруг Вы не можете на него зайти, то Вы без труда сможете скачать бесплатно и без рекламы последние новинки кино, игр, сериалов и прочего у нас, на Rutor.in. Не нужно использовать прокси, чтобы зайти на рутор, достаточно воспользоваться нашим ресурсом. Все новые фильмы, игры, сериалы, книги и музыка за 2013 и 2014 годы через торрент бесплатно. Скачивайте фильмы в хорошем качестве, игры для пк, xbox, playstation без регистрации. У нас вы найдете новые Зарубежные сериалы и Русские сериалы 2013, 2014, 2015 годов. Оставайтесь с нами, качайте любимые фильмы, игры, сериалы, книги и музыку.
cron