img image001 image001 image001 image001 image001 image001 image001 image001 image001 image001 image001 image001 image001 image001 image001

Planets Sun Sun Sun
Статистика раздачи
Автор: Снежана | Размер: 3.97 ГБ | Добавлен: 24 июл 2013
Раздают: 2    Качают: 4
Скачать торрент
Скачать торрент
Описание торрента

СообщениеДобавлено: 24 июл 2013 

#77

Информация о фильме
Оригинальное название: ЧП районного масштаба
Год выхода: 1988
Жанр: Драма
Режиссер: Сергей Снежкин
В ролях: Игорь Бочкин, Леонид Андриянов, Елена Анисимова, Елена Антонова, Эвелина Бледанс, Леонард Варфоломеев, Сергей Войтов, Сергей Волков, Юрий Демич, Надежда Живодерова, Юрий Кузнецов, Василий Малов, Алла Мурина, Герман Орлов, Анатолий Сливников, Андрей Смирнов, Виталий Усанов, Александр Шурыгин

О фильме: Годы застоя. Жируют и погрязли в разврате и пьянстве комсомольские лидеры. Первый секретарь райкома комсомола Николай Шумилин выдвинут на руководящую работу в горком. После организованной по этому событию попойки из здания райкома пропадает знамя. Теперь карьера Шумилина висит на волоске.

Страна: СССР
Студия: Ленфильм
Продолжительность: 01:29:21
Язык: Русский
Файл
Кодек: MPEG-2
Качество: DVD-5
Видео: PAL 16:9 (720x576) VBR
Звук: Русский (Dolby AC3, 2 ch)



Title: Локальный диск
Size: 3.97 Gb ( 4 162 326 KBytes ) - DVD-5
Enabled regions: 1, 2, 3, 4, 5, 6, 7, 8

VTS_01 :
Play Length: 00:00:24
Video: PAL 4:3 (720x576) VBR
Audio:
Russian (Dolby AC3, 2 ch)

VTS_02 :
Play Length: 01:29:21
Video: PAL 16:9 (720x576) VBR, Auto Pan&Scan
Audio:
Russian (Dolby AC3, 2 ch)

VTS_03 :
Play Length: 00:00:52+00:01:04+00:00:56+00:00:35+00:00:46
Video: PAL 4:3 (720x576) VBR
Audio:
Russian (Dolby AC3, 2 ch)
Russian (Dolby AC3, 2 ch)
Subtitles:
Russian

VTS_04 :
Play Length:
Video: PAL 4:3 (720x576) VBR
Subtitles:
Russian

Menu Video:
NTSC 4:3 (720x480) VBR
Auto Pan&Scan, Auto Letterboxed
Menu Russian Language Unit :
Root Menu
Chapter (PTT) Menu


Общее
Полное имя : D:1АААchpVTS_02_1.VOB
Формат : MPEG-PS
Размер файла : 1024 Мбайт
Продолжительность : 23 м.
Режим общего битрейта : Переменный
Общий поток : 6102 Кбит/сек

Видео
Идентификатор : 224 (0xE0)
Формат : MPEG Video
Версия формата : Version 2
Профиль формата : Main@Main
Параметр BVOP формата : Да
Параметр матрицы формата : По умолчанию
Параметр GOP формата : M=3, N=12
Продолжительность : 23 м.
Вид битрейта : Переменный
Битрейт : 5789 Кбит/сек
Максимальный битрейт : 7000 Кбит/сек
Ширина : 720 пикселей
Высота : 576 пикселей
Соотношение сторон : 16:9
Частота кадров : 25,000 кадров/сек
Стандарт вещания : PAL
Цветовое пространство : YUV
Субдискретизация насыщенности : 4:2:0
Битовая глубина : 8 бит
Тип развёртки : Прогрессивная
Метод сжатия : С потерями
Бит/(Пиксели*Кадры) : 0.558
TimeCode_FirstFrame : 00:00:00:00
TimeCode_Source : Group of pictures header
Размер потока : 971 Мбайт (95%)
Основные цвета : BT.601 PAL
Характеристики трансфера : BT.470 System B, BT.470 System G
Коэффициенты матрицы : BT.601

Аудио
Идентификатор : 189 (0xBD)-128 (0x80)
Формат : AC-3
Формат/Информация : Audio Coding 3
Расширение режима : CM (complete main)
Параметр Endianness формата : Big
Режим смешивания : DVD-Video
Продолжительность : 23 м.
Вид битрейта : Постоянный
Битрейт : 192 Кбит/сек
Каналы : 2 канала
Расположение каналов : Front: L R
Частота : 48,0 КГц
Битовая глубина : 16 бит
Метод сжатия : С потерями
Задержка видео : -80 мс.
Размер потока : 32,2 Мбайт (3%)

Меню





   Похожие торренты   Торрент   Размер 
В этой теме нет новых непрочитанных сообщений. ЧП районного масштаба (1988) DVDRip

4 | 3

745.18 МБ

В этой теме нет новых непрочитанных сообщений. ЧП районного масштаба (1988) DVDRip-AVC

36 | 5

1.35 ГБ

В этой теме нет новых непрочитанных сообщений. Девять Апельсинов / Сыщики районного масштаба 2 [02x01-08] (2008) DVDRip

21 | 12

3.42 ГБ

В этой теме нет новых непрочитанных сообщений. Топографические карты масштаба 1:50000. Часть 1 (1960-1990) JPG

49 | 45

10.44 ГБ

В этой теме нет новых непрочитанных сообщений. Топографические карты масштаба 1:50000. Часть 2. (1960-1990) JPG

37 | 22

12.23 ГБ

В этой теме нет новых непрочитанных сообщений. Угрозы современного мира: Жажда планетарного масштаба (2012) SATRip

0 | 3

338.6 МБ

В этой теме нет новых непрочитанных сообщений. Угрозы современного мира: Жажда планетарного масштаба (2012) HDTV 1080i

4 | 2

1.57 ГБ




Вы не можете начинать темы
Вы не можете отвечать на сообщения
Вы не можете редактировать свои сообщения
Вы не можете удалять свои сообщения
Вы не можете добавлять вложения

Перейти:  
Для Мосгорсуда, Роскомнадзора и рекламодателей: mosgorsud-torrent[собачка]yandex.ru
 Вход
ppkBB3cker v.2 © 2008-2014 @ PPK
[ Time : 0.042s | 14 Queries | GZIP : Off ]

Торрент трекер RUTOR.IN, Не можете зайти на rutor.org? Какой новый адрес рутор? Какое зеркало рутор? Не работает rutor.org и зеркала? Тогда наш торрент специально для вас. Rutor.in неофициальное зеркало rutor. В случае если у Вас заблокирован rutor или вдруг Вы не можете на него зайти, то Вы без труда сможете скачать бесплатно и без рекламы последние новинки кино, игр, сериалов и прочего у нас, на Rutor.in. Не нужно использовать прокси, чтобы зайти на рутор, достаточно воспользоваться нашим ресурсом. Все новые фильмы, игры, сериалы, книги и музыка за 2013 и 2014 годы через торрент бесплатно. Скачивайте фильмы в хорошем качестве, игры для пк, xbox, playstation без регистрации. У нас вы найдете новые Зарубежные сериалы и Русские сериалы 2013, 2014, 2015 годов. Оставайтесь с нами, качайте любимые фильмы, игры, сериалы, книги и музыку.