img image001 image001 image001 image001 image001 image001 image001 image001 image001 image001 image001 image001 image001 image001 image001

Planets Sun Sun Sun
Статистика раздачи
Автор: Снежана | Размер: 8.74 ГБ | Добавлен: 24 июл 2013
Раздают: 191    Качают: 17
Скачать торрент
Скачать торрент
Описание торрента

СообщениеДобавлено: 24 июл 2013 

Обитаемый остров (2008)



Информация о фильме
Название: Обитаемый остров
Год выхода: 2008
Жанр: фантастика, боевик
Режиссер: Фёдор Бондарчук
В ролях: Василий Степанов, Юлия Снигирь, Пётр Фёдоров, Алексей Серебряков, Борис Некрасов, Фёдор Бондарчук, Гоша Куценко, Сергей Гармаш, Анна Михалкова, Андрей Мерзликин

О фильме: …2157 год — эпоха расцвета человеческой цивилизации. Пилоты Группы Свободного Поиска бороздят просторы Вселенной. Главный герой, Максим Камеррер, совершает вынужденную посадку на планете Саракш, но уже через несколько минут его корабль будет уничтожен, а герой окажется узником неизвестной планеты. Вскоре Максим сталкивается с человеческой цивилизацией.

Уровень ее развития сопоставим с давно минувшим на Западе ХХ веком. После многолетней ядерной войны на планете царит экологический кризис, в обществе полно социальных проблем, а установившийся мир очень шаток… Максиму предстоит пережить много событий и пройти много испытаний прежде, чем он сможет спасти эту планету…



Выпущено: Нон-стоп Продакшн
Продолжительность: 02:00:57
Перевод: Оригинал (лицензия)

Файл
Кодек: x264
Качество: BDRip (источник: Blu-ray Disc)
Видео: 1280x544 (2,35:1), 23.976 fps, 4535 kbps
Аудио: AC-3, 6 ch, 640 kbps
Скачать: сэмпл

Скриншоты

Общее
Уникальный идентификатор : 172343226168684839912539442212329743890 (0x81A819167759B6FAA279742B6163E612)
Полное имя : Obitaemyy.ostrov.2008.BDRip.720p.Rus.mkv
Формат : Matroska
Версия формата : Version 2
Размер файла : 4,37 Гбайт
Продолжительность : 2 ч. 0 м.
Общий поток : 5176 Кбит/сек
Название фильма : Обитаемый остров (2008)
Дата кодирования : UTC 2013-06-13 20:17:09
Программа кодирования : mkvmerge v5.8.0 ('No Sleep / Pillow') built on Sep 2 2012 15:37:04
Библиотека кодирования : libebml v1.2.3 + libmatroska v1.3.0

Видео
Идентификатор : 1
Формат : AVC
Формат/Информация : Advanced Video Codec
Профиль формата : High@L4.1
Параметр CABAC формата : Да
Параметр ReFrames формата : 11 кадров
Идентификатор кодека : V_MPEG4/ISO/AVC
Продолжительность : 2 ч. 0 м.
Битрейт : 4535 Кбит/сек
Ширина : 1280 пикселей
Высота : 544 пикселя
Соотношение сторон : 2,35:1
Частота кадров : 23,976 кадра/сек
Цветовое пространство : YUV
Субдискретизация насыщенности : 4:2:0
Битовая глубина : 8 бит
Тип развёртки : Прогрессивная
Бит/(Пиксели*Кадры) : 0.272
Размер потока : 3,75 Гбайт (86%)
Заголовок : Release by AlexKa
Библиотека кодирования : x264 core 133 r2334 a3ac64b
Настройки программы : cabac=1 / ref=11 / deblock=1:-3:-3 / analyse=0x3:0x133 / me=umh / subme=11 / psy=1 / psy_rd=1.00:0.00 / mixed_ref=1 / me_range=32 / chroma_me=1 / trellis=2 / 8x8dct=1 / cqm=0 / deadzone=21,11 / fast_pskip=0 / chroma_qp_offset=-2 / threads=12 / lookahead_threads=1 / sliced_threads=0 / nr=0 / decimate=0 / interlaced=0 / bluray_compat=0 / constrained_intra=0 / bframes=5 / b_pyramid=2 / b_adapt=2 / b_bias=0 / direct=3 / weightb=1 / open_gop=0 / weightp=2 / keyint=240 / keyint_min=23 / scenecut=40 / intra_refresh=0 / rc=2pass / mbtree=0 / bitrate=4535 / ratetol=1.0 / qcomp=0.60 / qpmin=0 / qpmax=69 / qpstep=4 / cplxblur=20.0 / qblur=0.5 / ip_ratio=1.40 / pb_ratio=1.30 / aq=1:0.80
Язык : Russian

Аудио
Идентификатор : 2
Формат : AC-3
Формат/Информация : Audio Coding 3
Расширение режима : CM (complete main)
Идентификатор кодека : A_AC3
Продолжительность : 2 ч. 0 м.
Вид битрейта : Постоянный
Битрейт : 640 Кбит/сек
Каналы : 6 каналов
Расположение каналов : Front: L C R, Side: L R, LFE
Частота : 48,0 КГц
Битовая глубина : 16 бит
Метод сжатия : С потерями
Размер потока : 554 Мбайт (12%)
Заголовок : Rus
Язык : Russian

Меню
00:00:00.000 : :Chapter 01
00:07:59.187 : :Chapter 02
00:17:40.976 : :Chapter 03
00:26:14.239 : :Chapter 04
00:30:44.884 : :Chapter 05
00:38:05.491 : :Chapter 06
00:46:44.802 : :Chapter 07
00:54:29.891 : :Chapter 08
01:01:16.964 : :Chapter 09
01:08:17.009 : :Chapter 10
01:15:35.322 : :Chapter 11
01:22:32.489 : :Chapter 12
01:30:19.455 : :Chapter 13
01:37:08.739 : :Chapter 14
01:44:43.860 : :Chapter 15
01:52:24.988 : :Chapter 16

Обитаемый остров: Схватка (2009)



Информация о фильме
Название: Обитаемый остров: Схватка
Год выхода: 2009
Жанр: фантастика, боевик
Режиссер: Фёдор Бондарчук
В ролях: Василий Степанов, Фёдор Бондарчук, Гоша Куценко, Алексей Серебряков, Сергей Гармаш, Пётр Фёдоров, Михаил Евланов, Юлия Снигирь, Андрей Мерзликин, Алексей Пусько

О фильме: 2157 год. Человечество создает космическую группу, названную ГСП — группой свободного поиска. Теперь любой землянин, получив космический корабль и зарегистрировав свой маршрут, волен отправиться к звездам. Так и поступает Максим Каммерер, не подозревая, что ему предстоит потерпеть крушение на далекой планете, попасть в плен и оказаться один на один с чужим враждебным миром.



Выпущено: Нон-стоп Продакшн
Продолжительность: 01:47:07
Перевод: Оригинал (лицензия)

Файл
Кодек: x264
Качество: BDRip (источник: Blu-ray Disc)
Видео: 1280x544 (2,35:1), 23.976 fps, 5200 kbps
Аудио: AC-3, 6 ch, 640 kbps
Скачать: сэмпл

Скриншоты

Общее
Уникальный идентификатор : 216121474937340848406287420811879323001 (0xA2977B65B5556BE1A2EECB8D07B71579)
Полное имя : Obitaemyy.ostrov.Skhvatka.2009.BDRip.720p.Rus.mkv
Формат : Matroska
Версия формата : Version 2
Размер файла : 4,37 Гбайт
Продолжительность : 1 ч. 47 м.
Общий поток : 5843 Кбит/сек
Название фильма : Обитаемый остров: Схватка (2009)
Дата кодирования : UTC 2013-06-13 20:20:19
Программа кодирования : mkvmerge v5.8.0 ('No Sleep / Pillow') built on Sep 2 2012 15:37:04
Библиотека кодирования : libebml v1.2.3 + libmatroska v1.3.0

Видео
Идентификатор : 1
Формат : AVC
Формат/Информация : Advanced Video Codec
Профиль формата : High@L4.1
Параметр CABAC формата : Да
Параметр ReFrames формата : 11 кадров
Идентификатор кодека : V_MPEG4/ISO/AVC
Продолжительность : 1 ч. 47 м.
Битрейт : 5200 Кбит/сек
Ширина : 1280 пикселей
Высота : 544 пикселя
Соотношение сторон : 2,35:1
Частота кадров : 23,976 кадра/сек
Цветовое пространство : YUV
Субдискретизация насыщенности : 4:2:0
Битовая глубина : 8 бит
Тип развёртки : Прогрессивная
Бит/(Пиксели*Кадры) : 0.311
Размер потока : 3,81 Гбайт (87%)
Заголовок : Release by AlexKa
Библиотека кодирования : x264 core 133 r2334 a3ac64b
Настройки программы : cabac=1 / ref=11 / deblock=1:-3:-3 / analyse=0x3:0x133 / me=umh / subme=11 / psy=1 / psy_rd=1.00:0.00 / mixed_ref=1 / me_range=32 / chroma_me=1 / trellis=2 / 8x8dct=1 / cqm=0 / deadzone=21,11 / fast_pskip=0 / chroma_qp_offset=-2 / threads=12 / lookahead_threads=1 / sliced_threads=0 / nr=0 / decimate=0 / interlaced=0 / bluray_compat=0 / constrained_intra=0 / bframes=5 / b_pyramid=2 / b_adapt=2 / b_bias=0 / direct=3 / weightb=1 / open_gop=0 / weightp=2 / keyint=240 / keyint_min=23 / scenecut=40 / intra_refresh=0 / rc=2pass / mbtree=0 / bitrate=5200 / ratetol=1.0 / qcomp=0.60 / qpmin=0 / qpmax=69 / qpstep=4 / cplxblur=20.0 / qblur=0.5 / ip_ratio=1.40 / pb_ratio=1.30 / aq=1:0.80
Язык : Russian

Аудио
Идентификатор : 2
Формат : AC-3
Формат/Информация : Audio Coding 3
Расширение режима : CM (complete main)
Идентификатор кодека : A_AC3
Продолжительность : 1 ч. 47 м.
Вид битрейта : Постоянный
Битрейт : 640 Кбит/сек
Каналы : 6 каналов
Расположение каналов : Front: L C R, Side: L R, LFE
Частота : 48,0 КГц
Битовая глубина : 16 бит
Метод сжатия : С потерями
Размер потока : 490 Мбайт (11%)
Заголовок : Rus
Язык : Russian

Меню
00:00:00.000 : :Chapter 01
00:06:56.499 : :Chapter 02
00:14:24.822 : :Chapter 03
00:19:05.853 : :Chapter 04
00:28:47.767 : :Chapter 05
00:36:08.207 : :Chapter 06
00:42:29.880 : :Chapter 07
00:46:47.137 : :Chapter 08
00:52:55.213 : :Chapter 09
00:57:56.014 : :Chapter 10
01:04:53.514 : :Chapter 11
01:10:15.211 : :Chapter 12
01:15:16.637 : :Chapter 13
01:21:02.774 : :Chapter 14
01:27:47.762 : :Chapter 15
01:36:39.376 : :Chapter 16
01:39:41.225 : :Chapter 17
01:47:07.170 : :Chapter 18

1
x264 [info]: frame I:1884 Avg QP:17.07 size:111083
x264 [info]: frame P:40290 Avg QP:19.96 size: 43851
x264 [info]: frame B:131826 Avg QP:22.21 size: 16214

2
x264 [info]: frame I:1518 Avg QP:16.81 size:113049
x264 [info]: frame P:37314 Avg QP:19.15 size: 46886
x264 [info]: frame B:115272 Avg QP:21.60 size: 19582



   Похожие торренты   Торрент   Размер 
В этой теме нет новых непрочитанных сообщений. Обитаемый остров: Дилогия (2008-2009) BDRip-AVC от ExKinoRay

348 | 18

4.69 ГБ

В этой теме нет новых непрочитанных сообщений. Обитаемый остров: Фильм первый (2008) BDRip

244 | 11

1.46 ГБ

В этой теме нет новых непрочитанных сообщений. Обитаемый остров: Фильм первый (2008) BDRip от HQCLUB

29 | 5

2.18 ГБ

В этой теме нет новых непрочитанных сообщений. Обитаемый остров: Схватка (2009) BDRip от HQ-VIDEO

105 | 9

2.18 ГБ

В этой теме нет новых непрочитанных сообщений. Обитаемый Остров: 3 в 1 (2008) PC | RePack

18 | 3

2.5 ГБ

В этой теме нет новых непрочитанных сообщений. Обитаемый остров: Схватка (2009) DVDRip

168 | 14

1.37 ГБ

В этой теме нет новых непрочитанных сообщений. Обитаемый остров: Схватка (2009) DVD9

4 | 3

7.42 ГБ




Вы не можете начинать темы
Вы не можете отвечать на сообщения
Вы не можете редактировать свои сообщения
Вы не можете удалять свои сообщения
Вы не можете добавлять вложения

Перейти:  
Для Мосгорсуда, Роскомнадзора и рекламодателей: mosgorsud-torrent[собачка]yandex.ru
 Вход
ppkBB3cker v.2 © 2008-2014 @ PPK
[ Time : 0.033s | 15 Queries | GZIP : Off ]

Торрент трекер RUTOR.IN, Не можете зайти на rutor.org? Какой новый адрес рутор? Какое зеркало рутор? Не работает rutor.org и зеркала? Тогда наш торрент специально для вас. Rutor.in неофициальное зеркало rutor. В случае если у Вас заблокирован rutor или вдруг Вы не можете на него зайти, то Вы без труда сможете скачать бесплатно и без рекламы последние новинки кино, игр, сериалов и прочего у нас, на Rutor.in. Не нужно использовать прокси, чтобы зайти на рутор, достаточно воспользоваться нашим ресурсом. Все новые фильмы, игры, сериалы, книги и музыка за 2013 и 2014 годы через торрент бесплатно. Скачивайте фильмы в хорошем качестве, игры для пк, xbox, playstation без регистрации. У нас вы найдете новые Зарубежные сериалы и Русские сериалы 2013, 2014, 2015 годов. Оставайтесь с нами, качайте любимые фильмы, игры, сериалы, книги и музыку.
cron