img image001 image001 image001 image001 image001 image001 image001 image001 image001 image001 image001 image001 image001 image001 image001

Planets Sun Sun Sun
Статистика раздачи
Автор: Снежана | Размер: 743.28 МБ | Добавлен: 24 июл 2013
Раздают: 6    Качают: 5
Скачать торрент
Скачать торрент
Описание торрента

СообщениеДобавлено: 24 июл 2013 

#77
Страна: СССР, Румыния
Производство: Мосфильм
Жанр: мюзикл, комедия
Год выпуска: 1970
Продолжительность: 01:21:10

Перевод: не требуется
Оригинальная аудиодорожка: русский
Cубтитры: нет

Режиссер: Франчиск Мунтяну / Francisc Munteanu

В ролях:
Дан Спэтару (Михай), Наталья Фатеева (Нина), Ион Дикисяну, Штефан Бэникэ, Думитру Кесса, Рэка Ногь, Эмиль Хосу, Петер Паульхофер...

Описание:
Самодеятельный музыкальный коллектив румынских студентов всячески стремится попасть на Сочинский фестиваль эстрадной песни. Но чтобы сделать это, им нужно понравиться представителю фестиваля, который должен послушать их песни. Ребята даже не предполагают, что этим представителем окажется очень красивая русская девушка...





Исходник: DVD5 R5
Тип релиза: DVDRip
Контейнер: AVI

Видео: 688x352 (1,955:1), 25 fps, XviD ~ 1142 kbps avg, 0.189 bit/pixel
Аудио: 48 kHz, MP3 2.0, 128 kbps

Раздача от:
Общее
Полное имя : Pesni.morja.1970.DVDRip-745_[Youtracker]_by_AVP Studio.avi
Формат : AVI
Формат/Информация : Audio Video Interleave
Размер файла : 743 Мбайт
Продолжительность : 1 ч. 21 м.
Общий поток : 1280 Кбит/сек
Программа кодирования : VirtualDubModRus 1.5.10.2 (build 2542/release)
Библиотека кодирования : VirtualDubMod build 2542/release

Видео
Идентификатор : 0
Формат : MPEG-4 Visual
Профиль формата : Advanced Simple@L5
Параметр BVOP формата : 1
Параметр QPel формата : Нет
Параметр GMC формата : Без точки перехода
Параметр матрицы формата : Выборочная
Идентификатор кодека : XVID
Идентификатор кодека/Подсказка : XviD
Продолжительность : 1 ч. 21 м.
Битрейт : 1142 Кбит/сек
Ширина : 688 пикселей
Высота : 352 пикселя
Соотношение сторон : 1,955
Частота кадров : 25,000 кадров/сек
Цветовое пространство : YUV
Субдискретизация насыщенности : 4:2:0
Битовая глубина : 8 бит
Тип развёртки : Прогрессивная
Метод сжатия : С потерями
Бит/(Пиксели*Кадры) : 0.189
Размер потока : 663 Мбайт (89%)
Библиотека кодирования : XviD 65

Аудио
Идентификатор : 1
Формат : MPEG Audio
Версия формата : Version 1
Профиль формата : Layer 3
Идентификатор кодека : 55
Идентификатор кодека/Подсказка : MP3
Продолжительность : 1 ч. 21 м.
Вид битрейта : Постоянный
Битрейт : 128 Кбит/сек
Каналы : 2 канала
Частота : 48,0 КГц
Метод сжатия : С потерями
Размер потока : 74,3 Мбайт (10%)
Выравнивание : Соединение по промежуткам
Продолжительность промежутка : 40 мс. (1,00 видеокадр)
Время предзагрузки промежутка : 504 мс.
Библиотека кодирования : L3.99r
Настройки программы : -m s -V 4 -q 2 -lowpass 17 -b 128





   Похожие торренты   Торрент   Размер 
В этой теме нет новых непрочитанных сообщений. Песни моря (1970) DVDRip от Youtracker

28 | 3

1.45 ГБ

В этой теме нет новых непрочитанных сообщений. Песни моря (1970) DVDRip-AVC от Youtracker

23 | 4

743.75 МБ

В этой теме нет новых непрочитанных сообщений. Дан Спатару / Dan Spătaru - Песни из к/ф. "Песни моря" (1970) MP3

7 | 6

41.44 МБ

В этой теме нет новых непрочитанных сообщений. Путешествие на дно моря / Voyage to the Bottom of the Sea (1961) DVDRip-AVC от Youtracker | P

0 | 5

1.46 ГБ

В этой теме нет новых непрочитанных сообщений. Путешествие на дно моря / Voyage to the Bottom of the Sea (1961) DVDRip от Youtracker | P

6 | 8

745.22 МБ

В этой теме нет новых непрочитанных сообщений. Путешествие на дно моря / Voyage to the Bottom of the Sea (1961) DVDRip от Youtracker | P

0 | 2

1.46 ГБ

В этой теме нет новых непрочитанных сообщений. Бег (1970) DVDRip от Youtracker

10 | 4

2.19 ГБ




Вы не можете начинать темы
Вы не можете отвечать на сообщения
Вы не можете редактировать свои сообщения
Вы не можете удалять свои сообщения
Вы не можете добавлять вложения

Перейти:  
Для Мосгорсуда, Роскомнадзора и рекламодателей: mosgorsud-torrent[собачка]yandex.ru
 Вход
ppkBB3cker v.2 © 2008-2014 @ PPK
[ Time : 0.048s | 16 Queries | GZIP : Off ]

cron