img image001 image001 image001 image001 image001 image001 image001 image001 image001 image001 image001 image001 image001 image001 image001

Planets Sun Sun Sun
Статистика раздачи
Автор: Снежана | Размер: 744.16 МБ | Добавлен: 24 июл 2013
Раздают: 35    Качают: 12
Скачать торрент
Скачать торрент
Описание торрента

СообщениеДобавлено: 24 июл 2013 

#77
Страна: СССР
Производство: Одесская киностудия
Жанр: боевик, история
Год выпуска: 1969
Продолжительность: 01:22:44

Перевод: не требуется
Оригинальная аудиодорожка: русский
Cубтитры: нет

Режиссер: Георгий Юнгвальд-Хилькевич

В ролях:
Владимир Высоцкий, Николай Гринько, Ефим Копелян, Лионелла Пырьева, Иван Переверзев, Георгий Юматов, Николай Федорцов, Владимир Шубарин, Рада Волшанинова, Николай Волшанинов, Эльвира Бруновская, Борислав Брондуков, Виктор Павловский, Владимир Гуляев, Валентин Кулик, Василий Переплетчиков, Сергей Сибель, Борис Молодан, Дмитрий Орловский, Семен Крупник, Владимир Плотников, Георгиос Совчис, Владимир Костин, Леонид Кмит, Кира Муратова...

Описание:
1910 год, Одесса. Некий француз, виконт де Кордель, с дозволения "отцов" города организует театр-варьете. В нем выступают эстрадные артисты: куплетист Бенгальский, очаровательная танцовщица Софи, цыганский дуэт и, конечно же, кордебалет.
Однако, на самом деле это шикарное заведение создано большевиками. Революционная работа целой группы подпольщиков под носом у врага с такой ширмой, как варьете, - лучше не придумать! Но вот в прелестную Софи влюбляется шеф одесских жандармов Бобруйский-Думбадзе - и события принимают смертельно опасный оборот...





Исходник: DVD5
Тип релиза: DVDRip-AVC
Контейнер: MKV

Видео: 672->792x366 (2,2:1), 23,976 fps, H264 ~ 808 kbps avg, 0.137 bit/pixel
Аудио: 48 kHz, Dolby AC3 5.1, 448 kbps

Раздача от:
Общее
Полное имя : Opasnye.gastroli.1969.DVDRip-AVC_[Youtracker]_by_AVP Studio.mkv
Формат : Matroska
Версия формата : Version 2
Размер файла : 744 Мбайт
Продолжительность : 1 ч. 22 м.
Общий поток : 1257 Кбит/сек
Дата кодирования : UTC 2013-06-15 10:35:10
Программа кодирования : mkvmerge v5.0.1 ('Es ist Sommer') built on Nov 6 2011 16:23:40
Библиотека кодирования : libebml v1.2.2 + libmatroska v1.3.0

Видео
Идентификатор : 1
Формат : AVC
Формат/Информация : Advanced Video Codec
Профиль формата : High@L4.1
Параметр CABAC формата : Да
Параметр ReFrames формата : 11 кадров
Идентификатор кодека : V_MPEG4/ISO/AVC
Продолжительность : 1 ч. 22 м.
Битрейт : 808 Кбит/сек
Ширина : 672 пикселя
Высота : 366 пикселей
Соотношение сторон : 2,2:1
Соотношение сторон в оригинале : 2,2:1
Частота кадров : 23,976 кадра/сек
Цветовое пространство : YUV
Субдискретизация насыщенности : 4:2:0
Битовая глубина : 8 бит
Тип развёртки : Прогрессивная
Бит/(Пиксели*Кадры) : 0.137
Размер потока : 464 Мбайт (62%)
Библиотека кодирования : x264 core 130 r2273 b3065e6
Настройки программы : cabac=1 / ref=11 / deblock=1:-2:-1 / analyse=0x3:0x113 / me=umh / subme=9 / psy=1 / psy_rd=1.00:0.20 / mixed_ref=1 / me_range=32 / chroma_me=1 / trellis=1 / 8x8dct=1 / cqm=0 / deadzone=21,11 / fast_pskip=0 / chroma_qp_offset=-3 / threads=3 / lookahead_threads=1 / sliced_threads=0 / nr=0 / decimate=1 / interlaced=0 / bluray_compat=0 / constrained_intra=0 / bframes=8 / b_pyramid=2 / b_adapt=1 / b_bias=0 / direct=3 / weightb=1 / open_gop=0 / weightp=2 / keyint=240 / keyint_min=23 / scenecut=40 / intra_refresh=0 / rc_lookahead=60 / rc=2pass / mbtree=1 / bitrate=808 / ratetol=1.0 / qcomp=0.60 / qpmin=0 / qpmax=69 / qpstep=4 / cplxblur=20.0 / qblur=0.5 / ip_ratio=1.40 / aq=1:1.00
Default : Да
Forced : Нет

Аудио
Идентификатор : 2
Формат : AC-3
Формат/Информация : Audio Coding 3
Расширение режима : CM (complete main)
Идентификатор кодека : A_AC3
Продолжительность : 1 ч. 22 м.
Вид битрейта : Постоянный
Битрейт : 448 Кбит/сек
Каналы : 6 каналов
Расположение каналов : Front: L C R, Side: L R, LFE
Частота : 48,0 КГц
Битовая глубина : 16 бит
Метод сжатия : С потерями
Задержка видео : 266 мс.
Размер потока : 265 Мбайт (36%)
Default : Да
Forced : Нет





   Похожие торренты   Торрент   Размер 
В этой теме нет новых непрочитанных сообщений. Опасные гастроли (1969) DVDRip от Youtracker

7 | 5

744.73 МБ

В этой теме нет новых непрочитанных сообщений. Опасные гастроли (1969) DVDRip от R.G. Mega Best

190 | 8

968.59 МБ

В этой теме нет новых непрочитанных сообщений. Опасные гастроли (1969) TVRip

0 | 2

700.97 МБ

В этой теме нет новых непрочитанных сообщений. Опасные гастроли [01-06 выпуски] (2016) WEBRip

19 | 5

3.38 ГБ

В этой теме нет новых непрочитанных сообщений. Опасные мысли / Опасные умы / Dangerous Minds (1995) DVDRip от Scarabey | Р

197 | 45

1.45 ГБ

В этой теме нет новых непрочитанных сообщений. Опасные мысли / Опасные умы / Dangerous Minds (1995) DVDRip от Scarabey | Р

160 | 18

745.94 МБ

В этой теме нет новых непрочитанных сообщений. Где 042? (1969) DVDRip-AVC от Youtracker

6 | 4

744.66 МБ




Вы не можете начинать темы
Вы не можете отвечать на сообщения
Вы не можете редактировать свои сообщения
Вы не можете удалять свои сообщения
Вы не можете добавлять вложения

Перейти:  
Для Мосгорсуда, Роскомнадзора и рекламодателей: mosgorsud-torrent[собачка]yandex.ru
 Вход
ppkBB3cker v.2 © 2008-2014 @ PPK
[ Time : 1.473s | 16 Queries | GZIP : Off ]

Торрент трекер RUTOR.IN, Не можете зайти на rutor.org? Какой новый адрес рутор? Какое зеркало рутор? Не работает rutor.org и зеркала? Тогда наш торрент специально для вас. Rutor.in неофициальное зеркало rutor. В случае если у Вас заблокирован rutor или вдруг Вы не можете на него зайти, то Вы без труда сможете скачать бесплатно и без рекламы последние новинки кино, игр, сериалов и прочего у нас, на Rutor.in. Не нужно использовать прокси, чтобы зайти на рутор, достаточно воспользоваться нашим ресурсом. Все новые фильмы, игры, сериалы, книги и музыка за 2013 и 2014 годы через торрент бесплатно. Скачивайте фильмы в хорошем качестве, игры для пк, xbox, playstation без регистрации. У нас вы найдете новые Зарубежные сериалы и Русские сериалы 2013, 2014, 2015 годов. Оставайтесь с нами, качайте любимые фильмы, игры, сериалы, книги и музыку.