img image001 image001 image001 image001 image001 image001 image001 image001 image001 image001 image001 image001 image001 image001 image001

Planets Sun Sun Sun
Статистика раздачи
Автор: Снежана | Размер: 744.73 МБ | Добавлен: 24 июл 2013
Раздают: 7    Качают: 5
Скачать торрент
Скачать торрент
Описание торрента

СообщениеДобавлено: 24 июл 2013 

#77
Страна: СССР
Производство: Одесская киностудия
Жанр: боевик, история
Год выпуска: 1969
Продолжительность: 01:22:44

Перевод: не требуется
Оригинальная аудиодорожка: русский
Cубтитры: нет

Режиссер: Георгий Юнгвальд-Хилькевич

В ролях:
Владимир Высоцкий, Николай Гринько, Ефим Копелян, Лионелла Пырьева, Иван Переверзев, Георгий Юматов, Николай Федорцов, Владимир Шубарин, Рада Волшанинова, Николай Волшанинов, Эльвира Бруновская, Борислав Брондуков, Виктор Павловский, Владимир Гуляев, Валентин Кулик, Василий Переплетчиков, Сергей Сибель, Борис Молодан, Дмитрий Орловский, Семен Крупник, Владимир Плотников, Георгиос Совчис, Владимир Костин, Леонид Кмит, Кира Муратова...

Описание:
1910 год, Одесса. Некий француз, виконт де Кордель, с дозволения "отцов" города организует театр-варьете. В нем выступают эстрадные артисты: куплетист Бенгальский, очаровательная танцовщица Софи, цыганский дуэт и, конечно же, кордебалет.
Однако, на самом деле это шикарное заведение создано большевиками. Революционная работа целой группы подпольщиков под носом у врага с такой ширмой, как варьете, - лучше не придумать! Но вот в прелестную Софи влюбляется шеф одесских жандармов Бобруйский-Думбадзе - и события принимают смертельно опасный оборот...





Исходник: DVD5
Тип релиза: DVDRip
Контейнер: AVI

Видео: 656x304 (2,2:1), 23,976 fps, XviD ~ 801 kbps avg, 0.168 bit/pixel
Аудио: 48 kHz, Dolby AC3 5.1, 448 kbps

Раздача от:
Общее
Полное имя : Opasnye.gastroli.1969.DVDRip_[Youtracker]_by_AVP Studio.avi
Формат : AVI
Формат/Информация : Audio Video Interleave
Размер файла : 745 Мбайт
Продолжительность : 1 ч. 22 м.
Общий поток : 1258 Кбит/сек
Программа кодирования : VirtualDubModRus 1.5.10.2 (build 2542/release)
Библиотека кодирования : VirtualDubMod build 2542/release

Видео
Идентификатор : 0
Формат : MPEG-4 Visual
Профиль формата : Advanced Simple@L5
Параметр BVOP формата : 1
Параметр QPel формата : Нет
Параметр GMC формата : Без точки перехода
Параметр матрицы формата : Выборочная
Идентификатор кодека : XVID
Идентификатор кодека/Подсказка : XviD
Продолжительность : 1 ч. 22 м.
Битрейт : 801 Кбит/сек
Ширина : 656 пикселей
Высота : 304 пикселя
Соотношение сторон : 2,2:1
Частота кадров : 23,976 кадра/сек
Цветовое пространство : YUV
Субдискретизация насыщенности : 4:2:0
Битовая глубина : 8 бит
Тип развёртки : Прогрессивная
Метод сжатия : С потерями
Бит/(Пиксели*Кадры) : 0.168
Размер потока : 474 Мбайт (64%)
Библиотека кодирования : XviD 65

Аудио
Идентификатор : 1
Формат : AC-3
Формат/Информация : Audio Coding 3
Расширение режима : CM (complete main)
Идентификатор кодека : 2000
Продолжительность : 1 ч. 22 м.
Вид битрейта : Постоянный
Битрейт : 448 Кбит/сек
Каналы : 6 каналов
Расположение каналов : Front: L C R, Side: L R, LFE
Частота : 48,0 КГц
Битовая глубина : 16 бит
Метод сжатия : С потерями
Задержка видео : 266 мс.
Размер потока : 265 Мбайт (36%)
Выравнивание : Разделение по промежуткам
Продолжительность промежутка : 42 мс. (1,00 видеокадр)
Время предзагрузки промежутка : 500 мс





   Похожие торренты   Торрент   Размер 
В этой теме нет новых непрочитанных сообщений. Опасные гастроли (1969) DVDRip-AVC от Youtracker

35 | 12

744.16 МБ

В этой теме нет новых непрочитанных сообщений. Опасные гастроли (1969) DVDRip от R.G. Mega Best

190 | 8

968.59 МБ

В этой теме нет новых непрочитанных сообщений. Опасные гастроли (1969) TVRip

0 | 2

700.97 МБ

В этой теме нет новых непрочитанных сообщений. Опасные гастроли [01-06 выпуски] (2016) WEBRip

16 | 5

3.38 ГБ

В этой теме нет новых непрочитанных сообщений. Опасные мысли / Опасные умы / Dangerous Minds (1995) DVDRip от Scarabey | Р

154 | 31

1.45 ГБ

В этой теме нет новых непрочитанных сообщений. Опасные мысли / Опасные умы / Dangerous Minds (1995) DVDRip от Scarabey | Р

136 | 15

745.94 МБ

В этой теме нет новых непрочитанных сообщений. Где 042? (1969) DVDRip от Youtracker

3 | 5

743.99 МБ




Вы не можете начинать темы
Вы не можете отвечать на сообщения
Вы не можете редактировать свои сообщения
Вы не можете удалять свои сообщения
Вы не можете добавлять вложения

Перейти:  
Для Мосгорсуда, Роскомнадзора и рекламодателей: mosgorsud-torrent[собачка]yandex.ru
 Вход
ppkBB3cker v.2 © 2008-2014 @ PPK
[ Time : 0.056s | 16 Queries | GZIP : Off ]

Торрент трекер RUTOR.IN, Не можете зайти на rutor.org? Какой новый адрес рутор? Какое зеркало рутор? Не работает rutor.org и зеркала? Тогда наш торрент специально для вас. Rutor.in неофициальное зеркало rutor. В случае если у Вас заблокирован rutor или вдруг Вы не можете на него зайти, то Вы без труда сможете скачать бесплатно и без рекламы последние новинки кино, игр, сериалов и прочего у нас, на Rutor.in. Не нужно использовать прокси, чтобы зайти на рутор, достаточно воспользоваться нашим ресурсом. Все новые фильмы, игры, сериалы, книги и музыка за 2013 и 2014 годы через торрент бесплатно. Скачивайте фильмы в хорошем качестве, игры для пк, xbox, playstation без регистрации. У нас вы найдете новые Зарубежные сериалы и Русские сериалы 2013, 2014, 2015 годов. Оставайтесь с нами, качайте любимые фильмы, игры, сериалы, книги и музыку.
cron