img image001 image001 image001 image001 image001 image001 image001 image001 image001 image001 image001 image001 image001 image001 image001

Planets Sun Sun Sun
Статистика раздачи
Автор: Снежана | Размер: 9.47 ГБ | Добавлен: 24 июл 2013
Раздают: 37    Качают: 8
Скачать торрент
Скачать торрент
Описание торрента

СообщениеДобавлено: 24 июл 2013 

#77

Информация о фильме
Оригинальное название: Шпион
Год выпуска: 2012
Жанр: Триллер, детектив, приключения
Режиссер: Алексей Андрианов
В ролях: Данила Козловский, Федор Бондарчук, Анна Чиповская, Сергей Газаров, Владимир Епифанцев, Виктория Толстоганова, Алексей Горбунов, Андрей Мерзликин, Дмитрий Назаров, Полина Райкина, Сергей Фролов, Александр Кузнецов, Виктор Вержбицкий, Екатерина Мельник, Феликс Шультесс, Сергей Серов, Андрей Филиппак, Максим Мальцев, Роман Индык, Алексей Панин, Сергей Ююкин, Борис Каморзин, Рамунас Рудокас, Эгидиюс Станцикас, Лаймутис Седжюс, Вадим Жук, Константин Адаев, Алексей Гаврилов, Сергей Шеховцов, Максим Пинскер, Диана Чанышева, Михаил Процько, Владимир Горюшин, Алексей Ярмилко, Виктор Рябов, Михаил Лукашов

О фильме: Весна 1941 года. В центре Москвы разворачивается напряжённый поединок двух разведок. Цель тайной операции Гитлера - дезинформировать Сталина о планах нападения Германии на Советский Союз. Старший майор Октябрьский и лейтенант Дорин против гения фашистского шпионажа. Схватка на фоне большой истории, освещенной заревом грядущей войны.



Выпущено: Россия / Канал Россия, Студия Тритэ
Продолжительность: 01:48:28

Файл
Качество: BDRip 1080p
Видео: MPEG-4 AVC, 11000 Кбит/с, 1920x816, 24.000 кадр/с, 0.293 bit/(pixel*frame)
Аудио: Русский (DTS, 6 ch, 1510 Кбит/с)

[img=/s/sample.png]

---[Information] [16.06.2013 3:51:54] x264 [info]: frame I:1207 Avg QP:15.83 size:189209
---[Information] [16.06.2013 3:51:54] x264 [info]: frame P:35385 Avg QP:18.39 size: 95942
---[Information] [16.06.2013 3:51:54] x264 [info]: frame B:119606 Avg QP:20.69 size: 44480
____________________________________________________________________________________________

Общее
Уникальный идентификатор : 242373534110309746561485725976965655884 (0xB65771D8516829E7913525D2F09BAD4C)
Полное имя : D:Mои раздачиShpion.2012.BDRip.(1080p)-MediaClub.mkv
Формат : Matroska
Версия формата : Version 2
Размер файла : 9,47 Гбайт
Продолжительность : 1 ч. 48 м.
Общий поток : 12,5 Мбит/сек
Название фильма : Шпион (MediaClub-kaspr)
Дата кодирования : UTC 2013-06-16 05:55:00
Программа кодирования : mkvmerge v5.7.0 ('The Whirlwind') built on Aug 7 2012 14:11:40
Библиотека кодирования : libebml v1.2.3 + libmatroska v1.3.0

Видео
Идентификатор : 1
Формат : AVC
Формат/Информация : Advanced Video Codec
Профиль формата : High@L4.1
Параметр CABAC формата : Да
Параметр ReFrames формата : 4 кадра
Идентификатор кодека : V_MPEG4/ISO/AVC
Продолжительность : 1 ч. 48 м.
Битрейт : 11,0 Мбит/сек
Ширина : 1920 пикселей
Высота : 816 пикселей
Соотношение сторон : 2,35:1
Режим частоты кадров : Постоянный
Частота кадров : 24,000 кадра/сек
Цветовое пространство : YUV
Субдискретизация насыщенности : 4:2:0
Битовая глубина : 8 бит
Тип развёртки : Прогрессивная
Бит/(Пиксели*Кадры) : 0.293
Размер потока : 8,14 Гбайт (86%)
Заголовок : Шпион (MediaClub-kaspr)
Библиотека кодирования : x264 core 133 r2334 a3ac64b
Настройки программы : cabac=1 / ref=4 / deblock=1:-3:-3 / analyse=0x3:0x133 / me=umh / subme=11 / psy=1 / psy_rd=1.00:0.10 / mixed_ref=1 / me_range=32 / chroma_me=1 / trellis=2 / 8x8dct=1 / cqm=0 / deadzone=21,11 / fast_pskip=0 / chroma_qp_offset=-3 / threads=12 / lookahead_threads=2 / sliced_threads=0 / nr=0 / decimate=0 / interlaced=0 / bluray_compat=0 / constrained_intra=0 / bframes=8 / b_pyramid=2 / b_adapt=2 / b_bias=0 / direct=3 / weightb=1 / open_gop=0 / weightp=2 / keyint=240 / keyint_min=22 / scenecut=40 / intra_refresh=0 / rc=2pass / mbtree=0 / bitrate=11000 / ratetol=1.0 / qcomp=0.60 / qpmin=0 / qpmax=69 / qpstep=4 / cplxblur=20.0 / qblur=0.5 / ip_ratio=1.40 / pb_ratio=1.30 / aq=1:1.00
Default : Да
Forced : Нет

Аудио
Идентификатор : 2
Формат : DTS
Формат/Информация : Digital Theater Systems
Идентификатор кодека : A_DTS
Продолжительность : 1 ч. 48 м.
Вид битрейта : Постоянный
Битрейт : 1510 Кбит/сек
Каналы : 6 каналов
Расположение каналов : Front: L C R, Side: L R, LFE
Частота : 48,0 КГц
Битовая глубина : 16 бит
Метод сжатия : С потерями
Размер потока : 1,14 Гбайт (12%)
Язык : Russian
Default : Да
Forced : Да

Меню
00:00:00.000 : en:Chapter 01
00:13:28.250 : en:Chapter 02
00:19:10.041 : en:Chapter 03
00:28:26.500 : en:Chapter 04
00:37:04.958 : en:Chapter 05
00:45:32.500 : en:Chapter 06
00:52:47.291 : en:Chapter 07
01:02:19.375 : en:Chapter 08
01:14:57.541 : en:Chapter 09
01:24:27.666 : en:Chapter 10
01:34:40.833 : en:Chapter 11
01:42:47.416 : en:Chapter 12

Релиз от:

За исходник спасибо: HDWinG



   Похожие торренты   Торрент   Размер 
В этой теме нет новых непрочитанных сообщений. Обитель проклятых / Eliza Graves (2014) BDRip 1080p от MediaClub | D, A | GER Transfer

183 | 13

9.86 ГБ

В этой теме нет новых непрочитанных сообщений. Диана: История любви / Diana (2013) BDRip 1080p от MediaClub | FRE Transfer | Лицензия

4 | 3

9.82 ГБ

В этой теме нет новых непрочитанных сообщений. Тайна перевала Дятлова / The Dyatlov Pass Incident (2013) BDRip 1080p от MediaClub | GER Transfer | P

164 | 80

7.02 ГБ

В этой теме нет новых непрочитанных сообщений. Наблюдатель / Le guetteur (2012) BDRip 1080p | AUS Transfer | P, P2

10 | 0

6.71 ГБ

В этой теме нет новых непрочитанных сообщений. Мастер / The Master (2012) BDRip 1080p | US Transfer

5 | 3

11.54 ГБ

В этой теме нет новых непрочитанных сообщений. Стукач / Snitch (2012) BDRip 1080p | US Transfer

21 | 21

7.76 ГБ

В этой теме нет новых непрочитанных сообщений. Защитник / Safe (2012) BDRip 1080p от marcury | US-transfer | D, A

4 | 3

14.88 ГБ




Вы не можете начинать темы
Вы не можете отвечать на сообщения
Вы не можете редактировать свои сообщения
Вы не можете удалять свои сообщения
Вы не можете добавлять вложения

Перейти:  
Для Мосгорсуда, Роскомнадзора и рекламодателей: mosgorsud-torrent[собачка]yandex.ru
 Вход
ppkBB3cker v.2 © 2008-2014 @ PPK
[ Time : 0.031s | 15 Queries | GZIP : Off ]

Торрент трекер RUTOR.IN, Не можете зайти на rutor.org? Какой новый адрес рутор? Какое зеркало рутор? Не работает rutor.org и зеркала? Тогда наш торрент специально для вас. Rutor.in неофициальное зеркало rutor. В случае если у Вас заблокирован rutor или вдруг Вы не можете на него зайти, то Вы без труда сможете скачать бесплатно и без рекламы последние новинки кино, игр, сериалов и прочего у нас, на Rutor.in. Не нужно использовать прокси, чтобы зайти на рутор, достаточно воспользоваться нашим ресурсом. Все новые фильмы, игры, сериалы, книги и музыка за 2013 и 2014 годы через торрент бесплатно. Скачивайте фильмы в хорошем качестве, игры для пк, xbox, playstation без регистрации. У нас вы найдете новые Зарубежные сериалы и Русские сериалы 2013, 2014, 2015 годов. Оставайтесь с нами, качайте любимые фильмы, игры, сериалы, книги и музыку.
cron