img image001 image001 image001 image001 image001 image001 image001 image001 image001 image001 image001 image001 image001 image001 image001

Planets Sun Sun Sun
Статистика раздачи
Автор: Снежана | Размер: 744.41 МБ | Добавлен: 24 июл 2013
Раздают: 7    Качают: 8
Скачать торрент
Скачать торрент
Описание торрента

СообщениеДобавлено: 24 июл 2013 

#77
Страна: СССР
Производство: Ленфильм
Жанр: военный, приключения
Год выпуска: 1969
Продолжительность: 01:27:56

Перевод: не требуется
Оригинальная аудиодорожка: русский
Cубтитры: нет

Режиссер: Владимир Шредель

В ролях:
Глеб Селянин, Герман Юшко, Роман Громадский, Александр Чирков, Виктор Семеновский, Дитмар Рихтер-Райник, Григорий Гелий Аронов, Лариса Буркова, Владимир Карпенко, Юрий Мальцев, Александр Соколов, Наталия Четверикова, Борис Смельцов, Михаил Мудров, Степан Крылов, Алексей Кожевников, Юрий Дедович, Олег Хроменков, Евгения Ветлова, Иван Краско...

Описание:
Советское командование располагает тревожными сведениями о новом изобретении врага. По данным разведки на один из участков Восточного фронта гитлеровцы доставили партию новых химических снарядов, начиненных газом огромной разрушительной силы. Фашисты хотят испытать их в боевых условиях, а затем применить в широких масштабах.
В Ставке решают: необходимо предотвратить катастрофу, добыть снаряд и представить союзникам доказательства преступной затеи нацистов. С этой целью в тыл врага заброшена группа парашютистов-десантников из пяти человек. Операций руководит опытный командир — капитан Минаев. С ним — сержант Крумнинь, отлично знающий немецкий язык, и рядовые Трич, Наседкин и Супрунов...





Исходник: DVD5
Тип релиза: DVDRip
Контейнер: AVI

Видео: 672x288 (2,35:1), 25,000 fps, XviD ~ 982 kbps avg, 0.203 bit/pixel
Аудио: 48 kHz, Dolby AC3 2.0, 192 kbps

Раздача от:
Общее
Полное имя : Pyatero.s.neba.1969.DVDRip_[Youtracker]_by_AVP Studio.avi
Формат : AVI
Формат/Информация : Audio Video Interleave
Размер файла : 744 Мбайт
Продолжительность : 1 ч. 27 м.
Общий поток : 1184 Кбит/сек
Программа кодирования : VirtualDubModRus 1.5.10.2 (build 2542/release)
Библиотека кодирования : VirtualDubMod build 2542/release

Видео
Идентификатор : 0
Формат : MPEG-4 Visual
Профиль формата : Advanced Simple@L5
Параметр BVOP формата : 1
Параметр QPel формата : Нет
Параметр GMC формата : Без точки перехода
Параметр матрицы формата : Выборочная
Идентификатор кодека : XVID
Идентификатор кодека/Подсказка : XviD
Продолжительность : 1 ч. 27 м.
Битрейт : 982 Кбит/сек
Ширина : 672 пикселя
Высота : 288 пикселей
Соотношение сторон : 2,35:1
Частота кадров : 25,000 кадров/сек
Цветовое пространство : YUV
Субдискретизация насыщенности : 4:2:0
Битовая глубина : 8 бит
Тип развёртки : Прогрессивная
Метод сжатия : С потерями
Бит/(Пиксели*Кадры) : 0.203
Размер потока : 618 Мбайт (83%)
Библиотека кодирования : XviD 65

Аудио
Идентификатор : 1
Формат : AC-3
Формат/Информация : Audio Coding 3
Расширение режима : CM (complete main)
Идентификатор кодека : 2000
Продолжительность : 1 ч. 27 м.
Вид битрейта : Постоянный
Битрейт : 192 Кбит/сек
Каналы : 2 канала
Расположение каналов : Front: L R
Частота : 48,0 КГц
Битовая глубина : 16 бит
Метод сжатия : С потерями
Размер потока : 121 Мбайт (16%)
Выравнивание : Разделение по промежуткам
Продолжительность промежутка : 40 мс. (1,00 видеокадр)
Время предзагрузки промежутка : 500 мс





   Похожие торренты   Торрент   Размер 
В этой теме нет новых непрочитанных сообщений. Пятеро с неба (1969) DVDRip-AVC от Youtracker

14 | 9

744.32 МБ

В этой теме нет новых непрочитанных сообщений. Пятеро с неба (1969) DVDRip от Русфильм

37 | 22

1.44 ГБ

В этой теме нет новых непрочитанных сообщений. Пятеро из ада / 5 Per L'inferno (1969) DVDRip-AVC от Тorrent-Хzona

8 | 6

1.2 ГБ

В этой теме нет новых непрочитанных сообщений. Ключи от неба (1964) DVDRip-AVC от Youtracker

5 | 3

1.09 ГБ

В этой теме нет новых непрочитанных сообщений. Ключи от неба (1964) DVDRip от Youtracker

11 | 11

744.9 МБ

В этой теме нет новых непрочитанных сообщений. Где 042? (1969) DVDRip от Youtracker

3 | 5

743.99 МБ

В этой теме нет новых непрочитанных сообщений. Где 042? (1969) DVDRip-AVC от Youtracker

6 | 4

744.66 МБ




Вы не можете начинать темы
Вы не можете отвечать на сообщения
Вы не можете редактировать свои сообщения
Вы не можете удалять свои сообщения
Вы не можете добавлять вложения

Перейти:  
Для Мосгорсуда, Роскомнадзора и рекламодателей: mosgorsud-torrent[собачка]yandex.ru
 Вход
ppkBB3cker v.2 © 2008-2014 @ PPK
[ Time : 0.049s | 15 Queries | GZIP : Off ]

Торрент трекер RUTOR.IN, Не можете зайти на rutor.org? Какой новый адрес рутор? Какое зеркало рутор? Не работает rutor.org и зеркала? Тогда наш торрент специально для вас. Rutor.in неофициальное зеркало rutor. В случае если у Вас заблокирован rutor или вдруг Вы не можете на него зайти, то Вы без труда сможете скачать бесплатно и без рекламы последние новинки кино, игр, сериалов и прочего у нас, на Rutor.in. Не нужно использовать прокси, чтобы зайти на рутор, достаточно воспользоваться нашим ресурсом. Все новые фильмы, игры, сериалы, книги и музыка за 2013 и 2014 годы через торрент бесплатно. Скачивайте фильмы в хорошем качестве, игры для пк, xbox, playstation без регистрации. У нас вы найдете новые Зарубежные сериалы и Русские сериалы 2013, 2014, 2015 годов. Оставайтесь с нами, качайте любимые фильмы, игры, сериалы, книги и музыку.