img image001 image001 image001 image001 image001 image001 image001 image001 image001 image001 image001 image001 image001 image001 image001

Planets Sun Sun Sun
Статистика раздачи
Автор: Снежана | Размер: 744.32 МБ | Добавлен: 24 июл 2013
Раздают: 14    Качают: 9
Скачать торрент
Скачать торрент
Описание торрента

СообщениеДобавлено: 24 июл 2013 

#77
Страна: СССР
Производство: Ленфильм
Жанр: военный, приключения
Год выпуска: 1969
Продолжительность: 01:27:56

Перевод: не требуется
Оригинальная аудиодорожка: русский
Cубтитры: нет

Режиссер: Владимир Шредель

В ролях:
Глеб Селянин, Герман Юшко, Роман Громадский, Александр Чирков, Виктор Семеновский, Дитмар Рихтер-Райник, Григорий Гелий Аронов, Лариса Буркова, Владимир Карпенко, Юрий Мальцев, Александр Соколов, Наталия Четверикова, Борис Смельцов, Михаил Мудров, Степан Крылов, Алексей Кожевников, Юрий Дедович, Олег Хроменков, Евгения Ветлова, Иван Краско...

Описание:
Советское командование располагает тревожными сведениями о новом изобретении врага. По данным разведки на один из участков Восточного фронта гитлеровцы доставили партию новых химических снарядов, начиненных газом огромной разрушительной силы. Фашисты хотят испытать их в боевых условиях, а затем применить в широких масштабах.
В Ставке решают: необходимо предотвратить катастрофу, добыть снаряд и представить союзникам доказательства преступной затеи нацистов. С этой целью в тыл врага заброшена группа парашютистов-десантников из пяти человек. Операций руководит опытный командир — капитан Минаев. С ним — сержант Крумнинь, отлично знающий немецкий язык, и рядовые Трич, Наседкин и Супрунов...





Исходник: DVD5
Тип релиза: DVDRip-AVC
Контейнер: MKV

Видео: 696->1006x428 (2,35:1), 25,000 fps, H264 ~ 990 kbps avg, 0.133 bit/pixel
Аудио: 48 kHz, Dolby AC3 2.0, 192 kbps

Раздача от:
Общее
Полное имя : Pyatero.s.neba.1969.DVDRip-AVC_[Youtracker]_by_AVP Studio.mkv
Формат : Matroska
Версия формата : Version 2
Размер файла : 744 Мбайт
Продолжительность : 1 ч. 27 м.
Общий поток : 1183 Кбит/сек
Дата кодирования : UTC 2013-06-17 18:01:16
Программа кодирования : mkvmerge v5.0.1 ('Es ist Sommer') built on Nov 6 2011 16:23:40
Библиотека кодирования : libebml v1.2.2 + libmatroska v1.3.0

Видео
Идентификатор : 1
Формат : AVC
Формат/Информация : Advanced Video Codec
Профиль формата : High@L4.1
Параметр CABAC формата : Да
Параметр ReFrames формата : 11 кадров
Идентификатор кодека : V_MPEG4/ISO/AVC
Продолжительность : 1 ч. 27 м.
Битрейт : 990 Кбит/сек
Ширина : 696 пикселей
Высота : 428 пикселей
Соотношение сторон : 2,35:1
Частота кадров : 25,000 кадров/сек
Цветовое пространство : YUV
Субдискретизация насыщенности : 4:2:0
Битовая глубина : 8 бит
Тип развёртки : Прогрессивная
Бит/(Пиксели*Кадры) : 0.133
Размер потока : 609 Мбайт (82%)
Библиотека кодирования : x264 core 130 r2273 b3065e6
Настройки программы : cabac=1 / ref=11 / deblock=1:-2:-1 / analyse=0x3:0x113 / me=umh / subme=9 / psy=1 / psy_rd=1.00:0.20 / mixed_ref=1 / me_range=32 / chroma_me=1 / trellis=1 / 8x8dct=1 / cqm=0 / deadzone=21,11 / fast_pskip=0 / chroma_qp_offset=-3 / threads=3 / lookahead_threads=1 / sliced_threads=0 / nr=0 / decimate=0 / interlaced=0 / bluray_compat=0 / constrained_intra=0 / bframes=8 / b_pyramid=2 / b_adapt=2 / b_bias=0 / direct=3 / weightb=1 / open_gop=0 / weightp=2 / keyint=250 / keyint_min=25 / scenecut=40 / intra_refresh=0 / rc_lookahead=60 / rc=2pass / mbtree=1 / bitrate=990 / ratetol=1.0 / qcomp=0.60 / qpmin=0 / qpmax=69 / qpstep=4 / cplxblur=20.0 / qblur=0.5 / ip_ratio=1.40 / aq=1:1.00
Default : Да
Forced : Нет

Аудио
Идентификатор : 2
Формат : AC-3
Формат/Информация : Audio Coding 3
Расширение режима : CM (complete main)
Идентификатор кодека : A_AC3
Продолжительность : 1 ч. 27 м.
Вид битрейта : Постоянный
Битрейт : 192 Кбит/сек
Каналы : 2 канала
Расположение каналов : Front: L R
Частота : 48,0 КГц
Битовая глубина : 16 бит
Метод сжатия : С потерями
Размер потока : 121 Мбайт (16%)
Default : Да
Forced : Не





   Похожие торренты   Торрент   Размер 
В этой теме нет новых непрочитанных сообщений. Пятеро с неба (1969) DVDRip от Youtracker

7 | 8

744.41 МБ

В этой теме нет новых непрочитанных сообщений. Пятеро с неба (1969) DVDRip от Русфильм

37 | 22

1.44 ГБ

В этой теме нет новых непрочитанных сообщений. Пятеро из ада / 5 Per L'inferno (1969) DVDRip-AVC от Тorrent-Хzona

8 | 6

1.2 ГБ

В этой теме нет новых непрочитанных сообщений. Ключи от неба (1964) DVDRip-AVC от Youtracker

5 | 3

1.09 ГБ

В этой теме нет новых непрочитанных сообщений. Ключи от неба (1964) DVDRip от Youtracker

11 | 11

744.9 МБ

В этой теме нет новых непрочитанных сообщений. Где 042? (1969) DVDRip-AVC от Youtracker

6 | 4

744.66 МБ

В этой теме нет новых непрочитанных сообщений. Где 042? (1969) DVDRip от Youtracker

3 | 5

743.99 МБ




Вы не можете начинать темы
Вы не можете отвечать на сообщения
Вы не можете редактировать свои сообщения
Вы не можете удалять свои сообщения
Вы не можете добавлять вложения

Перейти:  
Для Мосгорсуда, Роскомнадзора и рекламодателей: mosgorsud-torrent[собачка]yandex.ru
 Вход
ppkBB3cker v.2 © 2008-2014 @ PPK
[ Time : 0.042s | 15 Queries | GZIP : Off ]

Торрент трекер RUTOR.IN, Не можете зайти на rutor.org? Какой новый адрес рутор? Какое зеркало рутор? Не работает rutor.org и зеркала? Тогда наш торрент специально для вас. Rutor.in неофициальное зеркало rutor. В случае если у Вас заблокирован rutor или вдруг Вы не можете на него зайти, то Вы без труда сможете скачать бесплатно и без рекламы последние новинки кино, игр, сериалов и прочего у нас, на Rutor.in. Не нужно использовать прокси, чтобы зайти на рутор, достаточно воспользоваться нашим ресурсом. Все новые фильмы, игры, сериалы, книги и музыка за 2013 и 2014 годы через торрент бесплатно. Скачивайте фильмы в хорошем качестве, игры для пк, xbox, playstation без регистрации. У нас вы найдете новые Зарубежные сериалы и Русские сериалы 2013, 2014, 2015 годов. Оставайтесь с нами, качайте любимые фильмы, игры, сериалы, книги и музыку.