img image001 image001 image001 image001 image001 image001 image001 image001 image001 image001 image001 image001 image001 image001 image001

Planets Sun Sun Sun
Статистика раздачи
Автор: Снежана | Размер: 1.46 ГБ | Добавлен: 24 июл 2013
Раздают: 9    Качают: 4
Скачать торрент
Скачать торрент
Описание торрента

СообщениеДобавлено: 24 июл 2013 

#77
Страна: СССР
Производство: Студия Горького
Жанр: фантастика, приключения, семейный
Год выпуска: 1970
Продолжительность: 01:08:17

Перевод: не требуется
Оригинальная аудиодорожка: русский
Cубтитры: нет

Режиссер: Михаил Юзовский

В ролях:
Эвальдас Микалюнас, Андрей Харыбин, Митя Юзовский, Сергей Евсюнин, Алиса Фрейндлих, Олег Табаков, Юрий Успенский, Савелий Крамаров, Светлана Старикова, Георгий Светлани, Борис Майоров, Евгений Майоров, Николай Сологубов, В.Брежнев, Э.Иванов...

Описание:
Однажды четвероклассник Толя Рыжков нашел волшебные спички, исполняющие любое желание. И началась у Толи вольготная жизнь! Вместе с другом он оказался на волшебном острове. Но вскоре ребята поняли, что возвращаться им придется самостоятельно...





Исходник: DVD5 R5
Тип релиза: DVDRip
Контейнер: AVI

Видео: 688x528 (4:3), 25 fps, XviD ~ 2398 kbps avg, 0.264 bit/pixel
Аудио: 48 kHz, Dolby AC3 5.1, 448 kbps
Аудио: 48 kHz, Dolby AC3 2.0, 192 kbps

Раздача от:
Общее
Полное имя : Tayna.zheleznoy.dveri.1970.DVDRip_[Youtracker]_by_AVP Studio.avi
Формат : AVI
Формат/Информация : Audio Video Interleave
Размер файла : 1,46 Гбайт
Продолжительность : 1 ч. 8 м.
Общий поток : 3052 Кбит/сек
Программа кодирования : VirtualDubModRus 1.5.10.2 (build 2542/release)
Библиотека кодирования : VirtualDubMod build 2542/release

Видео
Идентификатор : 0
Формат : MPEG-4 Visual
Профиль формата : Advanced Simple@L5
Параметр BVOP формата : 1
Параметр QPel формата : Нет
Параметр GMC формата : Без точки перехода
Параметр матрицы формата : Выборочная
Идентификатор кодека : XVID
Идентификатор кодека/Подсказка : XviD
Продолжительность : 1 ч. 8 м.
Битрейт : 2398 Кбит/сек
Ширина : 688 пикселей
Высота : 528 пикселей
Соотношение сторон : 4:3
Частота кадров : 25,000 кадров/сек
Цветовое пространство : YUV
Субдискретизация насыщенности : 4:2:0
Битовая глубина : 8 бит
Тип развёртки : Прогрессивная
Метод сжатия : С потерями
Бит/(Пиксели*Кадры) : 0.264
Размер потока : 1,14 Гбайт (79%)
Библиотека кодирования : XviD 65

Аудио #1
Идентификатор : 1
Формат : AC-3
Формат/Информация : Audio Coding 3
Расширение режима : CM (complete main)
Идентификатор кодека : 2000
Продолжительность : 1 ч. 8 м.
Вид битрейта : Постоянный
Битрейт : 448 Кбит/сек
Каналы : 6 каналов
Расположение каналов : Front: L C R, Side: L R, LFE
Частота : 48,0 КГц
Битовая глубина : 16 бит
Метод сжатия : С потерями
Размер потока : 219 Мбайт (15%)
Выравнивание : Разделение по промежуткам
Продолжительность промежутка : 40 мс. (1,00 видеокадр)
Время предзагрузки промежутка : 500 мс.

Аудио #2
Идентификатор : 2
Формат : AC-3
Формат/Информация : Audio Coding 3
Расширение режима : CM (complete main)
Идентификатор кодека : 2000
Продолжительность : 1 ч. 8 м.
Вид битрейта : Постоянный
Битрейт : 192 Кбит/сек
Каналы : 2 канала
Расположение каналов : Front: L R
Частота : 48,0 КГц
Битовая глубина : 16 бит
Метод сжатия : С потерями
Размер потока : 93,8 Мбайт (6%)
Выравнивание : Разделение по промежуткам
Продолжительность промежутка : 40 мс. (1,00 видеокадр)
Время предзагрузки промежутка : 500 мс






   Похожие торренты   Торрент   Размер 
В этой теме нет новых непрочитанных сообщений. Тайна железной двери (1970) DVDRip-AVC от Youtracker

234 | 12

1.46 ГБ

В этой теме нет новых непрочитанных сообщений. Тайна железной двери (1970) DVDRip от Youtracker

10 | 9

744.96 МБ

В этой теме нет новых непрочитанных сообщений. Тайна железной двери (1970) DVDRip-AVC

80 | 13

2.93 ГБ

В этой теме нет новых непрочитанных сообщений. Тайна железной двери (1970) DVD-5 (Ruscico) от Pshichko66

3 | 1

4.24 ГБ

В этой теме нет новых непрочитанных сообщений. Пятый мушкетер, или тайна железной маски / Пятый мушкетер / The Fifth Musketeer (1979) DVDRip

30 | 8

1.96 ГБ

В этой теме нет новых непрочитанных сообщений. Тайна фермы Мессе / La Horse (1970) DVDRip-AVC | D, P

82 | 11

1.8 ГБ

В этой теме нет новых непрочитанных сообщений. Тайна фермы Мессе / La Horse (1970) DVDRip от Files-x

20 | 3

1.32 ГБ




Вы не можете начинать темы
Вы не можете отвечать на сообщения
Вы не можете редактировать свои сообщения
Вы не можете удалять свои сообщения
Вы не можете добавлять вложения

Перейти:  
Для Мосгорсуда, Роскомнадзора и рекламодателей: mosgorsud-torrent[собачка]yandex.ru
 Вход
ppkBB3cker v.2 © 2008-2014 @ PPK
[ Time : 0.037s | 15 Queries | GZIP : Off ]

cron