img image001 image001 image001 image001 image001 image001 image001 image001 image001 image001 image001 image001 image001 image001 image001 image001

Planets Sun Sun Sun
Статистика раздачи
Автор: Снежана | Размер: 2.1 ГБ | Добавлен: 24 июл 2013
Раздают: 522    Качают: 109
Скачать торрент
Скачать торрент
Описание торрента

СообщениеДобавлено: 24 июл 2013 

#77

Информация о фильме
Название: Цирк
Год выхода: 1936
Жанр: «Цирк» привычно именуют комедией. На самом же деле Г. Александров в этом фильме сделал акцент на мелодраме.
Режиссер: Григорий Александров.
В ролях: Любовь Орлова, Евгения Мельникова, Владимир Володин, Сергей Столяров, Павел Массальский, Александр Комиссаров, Эммануил Геллер, Николай Отто, Джеймс Паттерсон, Федор Курихин, Лев Свердлин, Соломон Михоэлс, Владимир Канделаки, Александра Панова.

О фильме:

Сплав талантов гениальных актеров, режиссера, композитора - вот залог "нестарения" произведений искусства. Именно для кинофильма "Цирк" была написана знаменитая песня о Родине, начинающаяся словами "Широка страна моя родная..". Сценарий фильма "Цирк" написали Ильф и Петров с Катаевым, а диалоги правил не кто иной, как Исаак Бабель. Поразительный факт содружества гениев, которые сделали такой шедевр народного искусства (впоследствии их имена были вычеркнуты из титров).

Страна: СССР
Жанр: мюзикл, комедия
Продолжительность: 01:28:34
Перевод: Не требуется


Файл
Качество: BDRip-AVC [Blu-Ray 1080p]
Формат: MKV
Видео кодек: AVC
Аудио кодеk: AC3
Видео: 1024x864 (1.185:1), 25.000 fps, AVC, 3 000 Kbps, 0.136 bit/pixel, High 10@L5.1
Аудио: AC3, 384 Kbps, 48.0 KHz, 2 ch

General
Complete name : Цирк.1936.mkv
Format : Matroska
File size : 2.10 GiB
Duration : 1h 28mn
Overall bit rate : 3 386 Kbps
Encoded date : UTC 2013-06-20 09:53:44
Writing application : mkvmerge v6.1.0 ('Old Devil') built on Mar 2 2013 14:32:37
Writing library : libebml v1.3.0 + libmatroska v1.4.0

Video
ID : 1
Format : AVC
Format/Info : Advanced Video Codec
Format profile : High 10@L5.1
Format settings, CABAC : Yes
Format settings, ReFrames : 16 frames
Muxing mode : Container profile=Unknown@5.1
Codec ID : V_MPEG4/ISO/AVC
Duration : 1h 28mn
Bit rate : 3 000 Kbps
Width : 1 024 pixels
Height : 864 pixels
Display aspect ratio : 1.185
Frame rate : 25.000 fps
Color space : YUV
Chroma subsampling : 4:2:0
Bit depth : 10 bits
Scan type : Progressive
Bits/(Pixel*Frame) : 0.136
Stream size : 1.82 GiB (87%)
Writing library : x264 core 130 r2273 b3065e6
Encoding settings : cabac=1 / ref=16 / deblock=1:0:0 / analyse=0x3:0x113 / me=umh / subme=9 / psy=1 / psy_rd=1.00:0.00 / mixed_ref=1 / me_range=32 / chroma_me=1 / trellis=2 / 8x8dct=1 / cqm=0 / deadzone=21,11 / fast_pskip=0 / chroma_qp_offset=-2 / threads=6 / lookahead_threads=1 / sliced_threads=0 / nr=0 / decimate=1 / interlaced=0 / bluray_compat=0 / constrained_intra=0 / bframes=8 / b_pyramid=2 / b_adapt=2 / b_bias=0 / direct=1 / weightb=1 / open_gop=0 / weightp=2 / keyint=250 / keyint_min=25 / scenecut=40 / intra_refresh=0 / rc_lookahead=40 / rc=2pass / mbtree=1 / bitrate=3000 / ratetol=1.0 / qcomp=0.60 / qpmin=10 / qpmax=51 / qpstep=4 / cplxblur=20.0 / qblur=0.5 / ip_ratio=1.40 / aq=1:1.00

Audio
ID : 2
Format : AC-3
Format/Info : Audio Coding 3
Mode extension : CM (complete main)
Codec ID : A_AC3
Duration : 1h 28mn
Bit rate mode : Constant
Bit rate : 384 Kbps
Channel(s) : 2 channels
Channel positions : Front: L R
Sampling rate : 48.0 KHz
Bit depth : 16 bits
Stream size : 243 MiB (11%)
Language : Russian









   Похожие торренты   Торрент   Размер 
В этой теме нет новых непрочитанных сообщений. Небесный тихоход (1945) BDRip-AVC от New-Team | Цветная версия

292 | 14

1.46 ГБ

В этой теме нет новых непрочитанных сообщений. Небесный тихоход (1945) BDRip от New-Team | Цветная версия

257 | 32

1.46 ГБ

В этой теме нет новых непрочитанных сообщений. Офицеры (1971) BDRip 720p от MediaClub | Цветная Версия

749 | 69

3.9 ГБ

В этой теме нет новых непрочитанных сообщений. Небесный тихоход (1945) BDRip от New-Team | Цветная версия

59 | 10

744.25 МБ

В этой теме нет новых непрочитанных сообщений. Небесный тихоход (1945) BDRip 720p от New-Team | Цветная версия

124 | 20

2.19 ГБ

В этой теме нет новых непрочитанных сообщений. В бой идут одни «старики» (1973) BDRip от MediaClub | КПК | Цветная версия

409 | 26

413.87 МБ

В этой теме нет новых непрочитанных сообщений. В бой идут одни «старики» (1973) BDRip 1080p | Цветная версия

85 | 13

10.09 ГБ




Вы не можете начинать темы
Вы не можете отвечать на сообщения
Вы не можете редактировать свои сообщения
Вы не можете удалять свои сообщения
Вы не можете добавлять вложения

Перейти:  
 Вход
ppkBB3cker v.2 © 2008-2014 @ PPK
[ Time : 2.530s | 17 Queries | GZIP : Off ]

cron