img image001 image001 image001 image001 image001 image001 image001 image001 image001 image001 image001 image001 image001 image001 image001

Planets Sun Sun Sun
Статистика раздачи
Автор: Снежана | Размер: 4.37 ГБ | Добавлен: 24 июл 2013
Раздают: 7    Качают: 6
Скачать торрент
Скачать торрент
Описание торрента

СообщениеДобавлено: 24 июл 2013 

#77

Информация о фильме
Оригинальное название: Дрянь
Год выхода: 1990
Жанр: Драма, боевик
Режиссер: Анатолий Иванов
В ролях: Олег Фомин, Мария Селянская, Вячеслав Баранов, Александр Мартынов, Эрнст Романов, Анатолий Лукьяненко, Игорь Слободской, Шариф Кабулов, Константин Шамин, Валерий Шептекита, Валентина Ильяшенко, Виктор Плют, Владимир Костюк, Закир Муминов, Петр Бенюк, Николай Исаакян, Елена Драныш, Людмила Лобза, Осип Найдук, Фархад Хайдаров, Ульмас Юсупов, Шухрат Умаров, Машраб Кимсанов, Дзинтарс Бруверис, Виталий Качановский, Анатолий Грошевой

О фильме: После двухлетнего отсутствия Валентин возвращается домой и застает свою сестру Алису в невменяемом состоянии. Узнав, что девушка давно сидит на игле, брат пытается вытащить ее из наркотического ада, но, к сожалению, Алиса умирает от передозировки. С этого момента Валентин объявляет беспощадную войну дельцам наркобизнеса.

Страна: СССР
Студия: киностудия им. А. Довженко
Продолжительность: 01:26:22
Язык: Русский


Файл
Кодек: MPEG-2
Качество: DVD-5
Видео: PAL 4:3 (720x576) VBR
Звук: Русский (Dolby AC3, 2 ch)



Title: Локальный диск
Size: 4.37 Gb ( 4 587 148 KBytes ) - DVD-5
Enabled regions: 5

VTS_01 :
Play Length: 00:00:12
Video: PAL 4:3 (720x576) VBR
Audio:
Not specified (Dolby AC3, 2 ch)

VTS_02 :
Play Length: 00:00:26
Video: PAL 4:3 (720x576) VBR
Audio:
Not specified (Dolby AC3, 2 ch)

VTS_03 :
Play Length: 01:26:22
Video: PAL 4:3 (720x576) VBR
Audio:
Russian (Dolby AC3, 2 ch)

VTS_04 :
Play Length: 00:06:32
Video: PAL 4:3 (720x576) VBR
Audio:
Russian (Dolby AC3, 2 ch)

Menu Video:
PAL 4:3 (720x576) VBR
Menu Subtitles:
Not specified
Menu English Language Unit :
Root Menu
Chapter (PTT) Menu


Общее
Полное имя : D:1АААДряньVIDEO_TSVTS_03_1.VOB
Формат : MPEG-PS
Размер файла : 1024 Мбайт
Продолжительность : 20 м.
Режим общего битрейта : Переменный
Общий поток : 6944 Кбит/сек

Видео
Идентификатор : 224 (0xE0)
Формат : MPEG Video
Версия формата : Version 2
Профиль формата : Main@Main
Параметр BVOP формата : Да
Параметр матрицы формата : Выборочная
Параметр GOP формата : Variable
Продолжительность : 20 м.
Вид битрейта : Переменный
Битрейт : 6582 Кбит/сек
Максимальный битрейт : 9000 Кбит/сек
Ширина : 720 пикселей
Высота : 576 пикселей
Соотношение сторон : 4:3
Частота кадров : 25,000 кадров/сек
Стандарт вещания : PAL
Цветовое пространство : YUV
Субдискретизация насыщенности : 4:2:0
Битовая глубина : 8 бит
Тип развёртки : Чересстрочная
Порядок развёртки : Верхнее поле первое
Метод сжатия : С потерями
Бит/(Пиксели*Кадры) : 0.635
TimeCode_FirstFrame : 00:00:00:00
TimeCode_Source : Group of pictures header
Размер потока : 970 Мбайт (95%)

Аудио
Идентификатор : 189 (0xBD)-128 (0x80)
Формат : AC-3
Формат/Информация : Audio Coding 3
Расширение режима : CM (complete main)
Параметр Endianness формата : Big
Режим смешивания : DVD-Video
Продолжительность : 20 м.
Вид битрейта : Постоянный
Битрейт : 224 Кбит/сек
Каналы : 2 канала
Расположение каналов : Front: L R
Частота : 48,0 КГц
Битовая глубина : 16 бит
Метод сжатия : С потерями
Размер потока : 33,0 Мбайт (3%)

Меню





   Похожие торренты   Торрент   Размер 
В этой теме нет новых непрочитанных сообщений. Дрянь (1990) DVDRip

2 | 4

1.25 ГБ

В этой теме нет новых непрочитанных сообщений. Вкусная Дрянь / The Stuff (1985) DVDRip

0 | 1

709.71 МБ

В этой теме нет новых непрочитанных сообщений. Вкусная дрянь / The Stuff (1985) BDRip от Torrange | D

18 | 3

743.68 МБ

В этой теме нет новых непрочитанных сообщений. Вкусная дрянь / The Stuff (1985) BDRip 720p

49 | 7

7.39 ГБ

В этой теме нет новых непрочитанных сообщений. Дрянь / Playing House (2010) DVDRip | Лицензия

60 | 4

1.37 ГБ

В этой теме нет новых непрочитанных сообщений. Вкусная дрянь / The Stuff (1985) BDRip от R. G. Jolly Roger | D

98 | 2

1.46 ГБ

В этой теме нет новых непрочитанных сообщений. Следствие вели. Маленькая дрянь [163] [эфир от 04.03] (2011) SATRip от BigFANGroup

1 | 5

450.68 МБ




Вы не можете начинать темы
Вы не можете отвечать на сообщения
Вы не можете редактировать свои сообщения
Вы не можете удалять свои сообщения
Вы не можете добавлять вложения

Перейти:  
Для Мосгорсуда, Роскомнадзора и рекламодателей: mosgorsud-torrent[собачка]yandex.ru
 Вход
ppkBB3cker v.2 © 2008-2014 @ PPK
[ Time : 0.034s | 14 Queries | GZIP : Off ]

Торрент трекер RUTOR.IN, Не можете зайти на rutor.org? Какой новый адрес рутор? Какое зеркало рутор? Не работает rutor.org и зеркала? Тогда наш торрент специально для вас. Rutor.in неофициальное зеркало rutor. В случае если у Вас заблокирован rutor или вдруг Вы не можете на него зайти, то Вы без труда сможете скачать бесплатно и без рекламы последние новинки кино, игр, сериалов и прочего у нас, на Rutor.in. Не нужно использовать прокси, чтобы зайти на рутор, достаточно воспользоваться нашим ресурсом. Все новые фильмы, игры, сериалы, книги и музыка за 2013 и 2014 годы через торрент бесплатно. Скачивайте фильмы в хорошем качестве, игры для пк, xbox, playstation без регистрации. У нас вы найдете новые Зарубежные сериалы и Русские сериалы 2013, 2014, 2015 годов. Оставайтесь с нами, качайте любимые фильмы, игры, сериалы, книги и музыку.