img image001 image001 image001 image001 image001 image001 image001 image001 image001 image001 image001 image001 image001 image001 image001

Planets Sun Sun Sun
Статистика раздачи
Автор: Снежана | Размер: 1.54 ГБ | Добавлен: 25 июл 2013
Раздают: 167    Качают: 9
Скачать торрент
Скачать торрент
Описание торрента

СообщениеДобавлено: 25 июл 2013 

#77

Информация о фильме
Оригинальное название: Вовочка
Год выхода: 2002
Жанр: комедия, семейный
Режиссер: Игорь Мужжухин
В ролях: Алексей Гуськов, Никита Каракозов, Вера Новикова, Михаил Пореченков, Юрий Шевчук, Николай Сорокин, Виктор Степанов, Инна Ульянова, Максим Емельянов, Маша Жигунова, Иван Васильев, Мария Жигунова, Сергей Жигунов, Сергей Степанченко, Александр Игнатьев, Ольга Блок-Миримская, Геннадий Юхтин, Сергей Колесников

О фильме:
Вовочка - не герой анекдотов, Вовочка - реальный 10-летний мальчишка, непосредственный и неугомонный, выдумщик и озорник, который невольно доставляет взрослым массу хлопот. С приездом Вовочки в канун Новогодних праздников на дачу, жизнь тихого подмосковного поселка взрывается в прямом и переносном смысле…


Страна: Россия
Студия: "Свет"
Продолжительность: 01:35:54
Перевод: Русский

Файл
Кодек: DivX
Качество: DVDRip
Видео: DivX, 1837 Кбит/с, 720x448
Звук: AC3, 6 ch, 448 Кбит/с

Семпл






Общее
Полное имя : Vovochka.2002.DivX.DVDRip.avi
Формат : AVI
Формат/Информация : Audio Video Interleave
Размер файла : 1,54 Гбайт
Продолжительность : 1 ч. 35 м.
Общий поток : 2295 Кбит/сек
Программа кодирования : VirtualDubMod 1.5.10.2 (build 2540/release)
Библиотека кодирования : VirtualDubMod build 2540/release

Видео
Идентификатор : 0
Формат : MPEG-4 Visual
Параметр BVOP формата : 1
Параметр QPel формата : Нет
Параметр GMC формата : Без точки перехода
Параметр матрицы формата : Default (H.263)
Режим смешивания : Сжатый битовый поток
Идентификатор кодека : DX50
Идентификатор кодека/Подсказка : DivX 5
Продолжительность : 1 ч. 35 м.
Битрейт : 1837 Кбит/сек
Ширина : 720 пикселей
Высота : 448 пикселей
Соотношение сторон : 1,607
Частота кадров : 25,000 кадров/сек
Цветовое пространство : YUV
Субдискретизация насыщенности : 4:2:0
Битовая глубина : 8 бит
Тип развёртки : Прогрессивная
Метод сжатия : С потерями
Бит/(Пиксели*Кадры) : 0.228
Размер потока : 1,23 Гбайт (80%)
Библиотека кодирования : DivX 6.8.5 (UTC 2009-08-20)

Аудио
Идентификатор : 1
Формат : AC-3
Формат/Информация : Audio Coding 3
Расширение режима : CM (complete main)
Параметр Endianness формата : Big
Идентификатор кодека : 2000
Продолжительность : 1 ч. 35 м.
Вид битрейта : Постоянный
Битрейт : 448 Кбит/сек
Каналы : 6 каналов
Расположение каналов : Front: L C R, Side: L R, LFE
Частота : 48,0 КГц
Битовая глубина : 16 бит
Метод сжатия : С потерями
Размер потока : 307 Мбайт (20%)
Выравнивание : Разделение по промежуткам
Продолжительность промежутка : 40 мс. (1,00 видеокадр)
Время предзагрузки промежутка : 500 мс.



   Похожие торренты   Торрент   Размер 
В этой теме нет новых непрочитанных сообщений. Вовочка (2002) DVDRip от nTrey

9 | 3

744.93 МБ

В этой теме нет новых непрочитанных сообщений. Вовочка (2002) DVDRip от LTarik

0 | 3

1.37 ГБ

В этой теме нет новых непрочитанных сообщений. Вовочка (1-12 из 12) (2002) TVRip

13 | 69

2.45 ГБ

В этой теме нет новых непрочитанных сообщений. Великолепный Вовочка: Герой безопасного секса (2002) PC

20 | 20

650.25 МБ

В этой теме нет новых непрочитанных сообщений. Великолепный Вовочка 2: Герой эротических снов (2003) PC

60 | 13

553.88 МБ

В этой теме нет новых непрочитанных сообщений. Бои без правил. Лучшие моменты. 1993-2002 / Ultimate knockouts and submissions. 1993-2002 (2002) DVDRip

7 | 16

1.6 ГБ

В этой теме нет новых непрочитанных сообщений. Новогодний концерт Венского филармонического оркестра 2002 / Neujahrskonzert der Wiener Philharmoniker 2002 (2002) BDRip 720p от ivandubskoj

36 | 1

4.38 ГБ




Вы не можете начинать темы
Вы не можете отвечать на сообщения
Вы не можете редактировать свои сообщения
Вы не можете удалять свои сообщения
Вы не можете добавлять вложения

Перейти:  
Для Мосгорсуда, Роскомнадзора и рекламодателей: mosgorsud-torrent[собачка]yandex.ru
 Вход
ppkBB3cker v.2 © 2008-2014 @ PPK
[ Time : 0.106s | 14 Queries | GZIP : Off ]
CGP output time : 0.023s | 5 Queries | GZIP : Off

Торрент трекер RUTOR.IN, Не можете зайти на rutor.org? Какой новый адрес рутор? Какое зеркало рутор? Не работает rutor.org и зеркала? Тогда наш торрент специально для вас. Rutor.in неофициальное зеркало rutor. В случае если у Вас заблокирован rutor или вдруг Вы не можете на него зайти, то Вы без труда сможете скачать бесплатно и без рекламы последние новинки кино, игр, сериалов и прочего у нас, на Rutor.in. Не нужно использовать прокси, чтобы зайти на рутор, достаточно воспользоваться нашим ресурсом. Все новые фильмы, игры, сериалы, книги и музыка за 2013 и 2014 годы через торрент бесплатно. Скачивайте фильмы в хорошем качестве, игры для пк, xbox, playstation без регистрации. У нас вы найдете новые Зарубежные сериалы и Русские сериалы 2013, 2014, 2015 годов. Оставайтесь с нами, качайте любимые фильмы, игры, сериалы, книги и музыку.