img image001 image001 image001 image001 image001 image001 image001 image001 image001 image001 image001 image001 image001 image001 image001

Planets Sun Sun Sun
Статистика раздачи
Автор: Снежана | Размер: 2.19 ГБ | Добавлен: 24 июл 2013
Раздают: 39    Качают: 9
Скачать торрент
Скачать торрент
Описание торрента

СообщениеДобавлено: 24 июл 2013 

#77
Страна: СССР, Италия
Производство: Мосфильм, Dino de Laurentiis Cinematografica
Жанр: боевик, драма, военный, история
Год выпуска: 1970
Продолжительность: 02:08:07

Перевод: Профессиональный (многоголосый закадровый) - "Мосфильм",
Профессиональный (одноголосый закадровый) - С. Бондарчук (советский прокатный вариант),
Авторский (одноголосый закадровый) - Ю. Живов

Оригинальная аудиодорожка: нет
Cубтитры: нет

Режиссер: Сергей Бондарчук

В ролях:
Род Стайгер, Олег Видов, Василий Ливанов, Кристофер Пламмер, Сергей Закариадзе, Дэниэл О`Херлихи, Орсон Уэллс, Джек Хокинс, Ирина Скобцева-Бондарчук, Владимир Дружников, Вирджиния Маккенна, Майкл Уилдинг...

Описание:
Грандиозный фильм с массовыми батальными сценами, посвящённый событиям 1814-15 годов, последовавшим за взятием Парижа русскими войсками. Начинается фильм со сцены первого отречения Наполеона и его отъезда на остров Эльба. Вскоре Наполеон с небольшим отрядом тайно покидает остров Эльба и высаживается на юге Франции. После триумфального похода на Париж он снова становится во главе возрождённой армии и пытается оказать сопротивление коалиции Англии, России и Пруссии. Наполеон одерживает частичную победу над войсками Блюхера, но в битве при Ватерлоо терпит поражение, которое приводит к окончательному падению его империи...
В фильме в массовых сценах были заняты пятнадцать тысяч советских солдат, изображавших пехотные подразделения, и ещё две тысячи кавалеристов, изображавших казачьи кавалерийские части.





Исходник: DVD9
Тип релиза: DVDRip-AVC
Контейнер: MKV

Видео: 720->1000x426 (2,35:1), 25 fps, H264 ~ 1290 kbps avg, 0.172 bit/pixel
Аудио: 48 kHz, Dolby AC3 5.1, 384 kbps Русский MVO
Аудио: 48 kHz, Dolby AC3 2.0, 192 kbps Русский VO С. Бондарчук
Аудио: 48 kHz, Dolby AC3 2.0, 192 kbps Русский AVO Ю. Живов
Аудио: 48 kHz, Dolby AC3 5.1, 384 kbps Английский

Раздача от:
Общее
Полное имя : Vaterloo.1970.DVDRip-AVC_[Youtracker]_by_AVP Studio.mkv
Формат : Matroska
Версия формата : Version 4 / Version 2
Размер файла : 2,19 Гбайт
Продолжительность : 2 ч. 8 м.
Общий поток : 2444 Кбит/сек
Название фильма : Vaterloo.1970.DVDRip-AVC_[Youtracker]_by_AVP Studio
Дата кодирования : UTC 2013-06-26 07:44:35
Программа кодирования : mkvmerge v6.2.0 ('Promised Land') built on Apr 28 2013 12:22:01
Библиотека кодирования : libebml v1.3.0 + libmatroska v1.4.0

Видео
Идентификатор : 1
Формат : AVC
Формат/Информация : Advanced Video Codec
Профиль формата : High@L4.1
Параметр CABAC формата : Да
Параметр ReFrames формата : 11 кадров
Идентификатор кодека : V_MPEG4/ISO/AVC
Продолжительность : 2 ч. 8 м.
Битрейт : 1290 Кбит/сек
Ширина : 704 пикселя
Высота : 426 пикселей
Соотношение сторон : 2,35:1
Соотношение сторон в оригинале : 2,35:1
Частота кадров : 25,000 кадров/сек
Цветовое пространство : YUV
Субдискретизация насыщенности : 4:2:0
Битовая глубина : 8 бит
Тип развёртки : Прогрессивная
Бит/(Пиксели*Кадры) : 0.172
Размер потока : 1,11 Гбайт (51%)
Заголовок : Источник DVD
Библиотека кодирования : x264 core 130 r2273 b3065e6
Настройки программы : cabac=1 / ref=11 / deblock=1:-2:-1 / analyse=0x3:0x113 / me=umh / subme=9 / psy=1 / psy_rd=1.00:0.20 / mixed_ref=1 / me_range=32 / chroma_me=1 / trellis=1 / 8x8dct=1 / cqm=0 / deadzone=21,11 / fast_pskip=0 / chroma_qp_offset=-3 / threads=3 / lookahead_threads=1 / sliced_threads=0 / nr=0 / decimate=0 / interlaced=0 / bluray_compat=0 / constrained_intra=0 / bframes=8 / b_pyramid=2 / b_adapt=2 / b_bias=0 / direct=3 / weightb=1 / open_gop=0 / weightp=2 / keyint=250 / keyint_min=25 / scenecut=40 / intra_refresh=0 / rc_lookahead=60 / rc=2pass / mbtree=1 / bitrate=1290 / ratetol=1.0 / qcomp=0.60 / qpmin=0 / qpmax=69 / qpstep=4 / cplxblur=20.0 / qblur=0.5 / ip_ratio=1.40 / aq=1:1.00
Язык : Russian
Default : Да
Forced : Нет

Аудио #1
Идентификатор : 2
Формат : AC-3
Формат/Информация : Audio Coding 3
Расширение режима : CM (complete main)
Идентификатор кодека : A_AC3
Продолжительность : 2 ч. 8 м.
Вид битрейта : Постоянный
Битрейт : 384 Кбит/сек
Каналы : 6 каналов
Расположение каналов : Front: L C R, Side: L R, LFE
Частота : 48,0 КГц
Битовая глубина : 16 бит
Метод сжатия : С потерями
Размер потока : 352 Мбайт (16%)
Заголовок : Источник DVD Dolby Digital 5,1 MVO
Язык : Russian
Default : Да
Forced : Нет

Аудио #2
Идентификатор : 3
Формат : AC-3
Формат/Информация : Audio Coding 3
Расширение режима : CM (complete main)
Идентификатор кодека : A_AC3
Продолжительность : 2 ч. 8 м.
Вид битрейта : Постоянный
Битрейт : 192 Кбит/сек
Каналы : 2 канала
Расположение каналов : Front: L R
Частота : 48,0 КГц
Битовая глубина : 16 бит
Метод сжатия : С потерями
Размер потока : 176 Мбайт (8%)
Заголовок : Источник DVD Dolby Digital 5,1 С. Бондарчук
Язык : Russian
Default : Нет
Forced : Нет

Аудио #3
Идентификатор : 4
Формат : AC-3
Формат/Информация : Audio Coding 3
Расширение режима : CM (complete main)
Идентификатор кодека : A_AC3
Продолжительность : 2 ч. 8 м.
Вид битрейта : Постоянный
Битрейт : 192 Кбит/сек
Каналы : 2 канала
Расположение каналов : Front: L R
Частота : 48,0 КГц
Битовая глубина : 16 бит
Метод сжатия : С потерями
Размер потока : 176 Мбайт (8%)
Заголовок : Источник DVD Dolby Digital 5,1 Ю. Живов
Язык : Russian
Default : Нет
Forced : Нет

Аудио #4
Идентификатор : 5
Формат : AC-3
Формат/Информация : Audio Coding 3
Расширение режима : CM (complete main)
Идентификатор кодека : A_AC3
Продолжительность : 2 ч. 8 м.
Вид битрейта : Постоянный
Битрейт : 384 Кбит/сек
Каналы : 4 канала
Расположение каналов : Front: L C R, Side: C
Частота : 48,0 КГц
Битовая глубина : 16 бит
Метод сжатия : С потерями
Размер потока : 352 Мбайт (16%)
Заголовок : Источник DVD Dolby Digital 5,1
Язык : English
Default : Нет
Forced : Нет

Меню
00:00:00.000 : ru:00:00:00.000000000
00:05:00.000 : :00:05:00.000000000
00:10:00.000 : :00:10:00.000000000
00:15:00.000 : :00:15:00.000000000
00:20:00.000 : :00:20:00.000000000
00:25:00.000 : :00:25:00.000000000
00:30:00.000 : :00:30:00.000000000
00:35:00.000 : :00:35:00.000000000
00:40:00.000 : :00:40:00.000000000
00:45:00.000 : :00:45:00.000000000
00:50:00.000 : :00:50:00.000000000
00:55:00.000 : :00:55:00.000000000
01:00:00.000 : :01:00:00.000000000
01:05:00.000 : :01:05:00.000000000
01:10:00.000 : :01:10:00.000000000
01:15:00.000 : :01:15:00.000000000
01:20:00.000 : :01:20:00.000000000
01:25:00.000 : :01:25:00.000000000
01:30:00.000 : :01:30:00.000000000
01:35:00.000 : :01:35:00.000000000
01:40:00.000 : :01:40:00.000000000
01:45:00.000 : :01:45:00.000000000
01:50:00.000 : :01:50:00.000000000
01:55:00.000 : :01:55:00.000000000
02:00:00.000 : :02:00:00.000000000
02:05:00.000 : :02:05:00.000000000





   Похожие торренты   Торрент   Размер 
В этой теме нет новых непрочитанных сообщений. Ватерлоо / Waterloo (1970) DVDRip от Youtracker

405 | 7

1.46 ГБ

В этой теме нет новых непрочитанных сообщений. Ватерлоо / Waterloo (1970) DVDRip от Youtracker

21 | 5

2.21 ГБ

В этой теме нет новых непрочитанных сообщений. Ватерлоо / Waterloo (1970) WEB-DLRip 720p | P

89 | 0

4.18 ГБ

В этой теме нет новых непрочитанных сообщений. Мост Ватерлоо / Waterloo Bridge (1940) DVDRip от ExKinoRay

75 | 6

1.36 ГБ

В этой теме нет новых непрочитанных сообщений. Waterloo - First Battle (1970) FLAC от MediaClub

0 | 0

421.26 МБ

В этой теме нет новых непрочитанных сообщений. Бег (1970) DVDRip от Youtracker

10 | 4

2.19 ГБ

В этой теме нет новых непрочитанных сообщений. Бег (1970) DVDRip-AVC от Youtracker

11 | 3

2.18 ГБ




Вы не можете начинать темы
Вы не можете отвечать на сообщения
Вы не можете редактировать свои сообщения
Вы не можете удалять свои сообщения
Вы не можете добавлять вложения

Перейти:  
Для Мосгорсуда, Роскомнадзора и рекламодателей: mosgorsud-torrent[собачка]yandex.ru
 Вход
ppkBB3cker v.2 © 2008-2014 @ PPK
[ Time : 0.216s | 14 Queries | GZIP : Off ]
CGP output time : 0.070s | 5 Queries | GZIP : Off

Торрент трекер RUTOR.IN, Не можете зайти на rutor.org? Какой новый адрес рутор? Какое зеркало рутор? Не работает rutor.org и зеркала? Тогда наш торрент специально для вас. Rutor.in неофициальное зеркало rutor. В случае если у Вас заблокирован rutor или вдруг Вы не можете на него зайти, то Вы без труда сможете скачать бесплатно и без рекламы последние новинки кино, игр, сериалов и прочего у нас, на Rutor.in. Не нужно использовать прокси, чтобы зайти на рутор, достаточно воспользоваться нашим ресурсом. Все новые фильмы, игры, сериалы, книги и музыка за 2013 и 2014 годы через торрент бесплатно. Скачивайте фильмы в хорошем качестве, игры для пк, xbox, playstation без регистрации. У нас вы найдете новые Зарубежные сериалы и Русские сериалы 2013, 2014, 2015 годов. Оставайтесь с нами, качайте любимые фильмы, игры, сериалы, книги и музыку.