img image001 image001 image001 image001 image001 image001 image001 image001 image001 image001 image001 image001 image001 image001 image001

Planets Sun Sun Sun
Статистика раздачи
Автор: Снежана | Размер: 1.45 ГБ | Добавлен: 24 июл 2013
Раздают: 344    Качают: 19
Скачать торрент
Скачать торрент
Описание торрента

СообщениеДобавлено: 24 июл 2013 

#77
Страна: СССР
Производство: Мосфильм
Жанр: комедия
Год выпуска: 1971
Продолжительность: 02:32:35 (01:16:58 + 01:15:37)

Перевод: не требуется
Оригинальная аудиодорожка: русский
Cубтитры: нет

Режиссер: Леонид Гайдай

В ролях:
Арчил Гомиашвили, Сергей Филиппов, Михаил Пуговкин, Клара Румянова, Юрий Никулин, Наталья Крачковская, Григорий Шпигель, Гликерия Богданова-Чеснокова, Николай Пажитнов, Готлиб Ронинсон, Николай Горлов, Наталья Варлей, Виктор Павлов, Наталья Воробьёва, Игорь Ясулович, Нина Гребешкова, Владимир Этуш, Георгий Вицин, Леонид Гайдай, Роман Филиппов и др.

Описание:
Во время революции и последовавшего за ней краткого периода военного коммунизма многие прятали свои ценности как можно надежнее. И вот Ипполит Матвеевич Воробьянинов, бывший Старгородский предводитель дворянства и светский лев, а ныне — скромный делопроизводитель ЗАГСа, узнает от умирающей тещи, что некогда она спрятала свои бриллианты и жемчуга в общей сложности на 150 000 золотых рублей под обивку одного из двенадцати стульев гостиного гарнитура работы известного мастера Гамбса.
Бросив все, Воробьянинов бросается на поиски стульев, в чем ему, конечно же, небескорыстно, берется помочь молодой авантюрист, «великий комбинатор» Остап Бендер. Найти следы разрозненного гарнитура непросто. Не облегчает положения и то, что перед смертью теща Воробьянинова открыла тайну сокровищ и своему исповеднику, отцу Федору, всю жизнь мечтавшему о собственном свечном заводике в Самаре…





Исходник: DVD9 R5
Тип релиза: DVDRip
Контейнер: AVI

Видео: 656x496 (4:3), 25 fps, XviD ~ 1226 kbps avg, 0.151 bit/pixel
Аудио: 48 kHz, MP3 2.0, 128 kbps

Раздача от:
Общее
Полное имя : 12.stul'ev.1971.DVDRip-1.46_[Youtracker]_by_AVP Studio�1.avi
Формат : AVI
Формат/Информация : Audio Video Interleave
Размер файла : 751 Мбайт
Продолжительность : 1 ч. 16 м.
Общий поток : 1364 Кбит/сек
Программа кодирования : VirtualDubModRus 1.5.10.2 (build 2542/release)
Библиотека кодирования : VirtualDubMod build 2542/release

Видео
Идентификатор : 0
Формат : MPEG-4 Visual
Профиль формата : Advanced Simple@L5
Параметр BVOP формата : 1
Параметр QPel формата : Нет
Параметр GMC формата : Без точки перехода
Параметр матрицы формата : Выборочная
Идентификатор кодека : XVID
Идентификатор кодека/Подсказка : XviD
Продолжительность : 1 ч. 16 м.
Битрейт : 1226 Кбит/сек
Ширина : 656 пикселей
Высота : 496 пикселей
Соотношение сторон : 4:3
Частота кадров : 25,000 кадров/сек
Цветовое пространство : YUV
Субдискретизация насыщенности : 4:2:0
Битовая глубина : 8 бит
Тип развёртки : Прогрессивная
Метод сжатия : С потерями
Бит/(Пиксели*Кадры) : 0.151
Размер потока : 675 Мбайт (90%)
Библиотека кодирования : XviD 65

Аудио
Идентификатор : 1
Формат : MPEG Audio
Версия формата : Version 1
Профиль формата : Layer 3
Режим : Joint stereo
Расширение режима : MS Stereo
Идентификатор кодека : 55
Идентификатор кодека/Подсказка : MP3
Продолжительность : 1 ч. 16 м.
Вид битрейта : Постоянный
Битрейт : 128 Кбит/сек
Каналы : 2 канала
Частота : 48,0 КГц
Метод сжатия : С потерями
Размер потока : 70,4 Мбайт (9%)
Выравнивание : Соединение по промежуткам
Продолжительность промежутка : 40 мс. (1,00 видеокадр)
Время предзагрузки промежутка : 504 мс





   Похожие торренты   Торрент   Размер 
В этой теме нет новых непрочитанных сообщений. 12 стульев (1971) DVDRip от Youtracker

202 | 19

2.82 ГБ

В этой теме нет новых непрочитанных сообщений. 12 стульев (1971) DVDRip-AVC от Youtracker

268 | 20

2.19 ГБ

В этой теме нет новых непрочитанных сообщений. 12 стульев (1971) DVDRip от MediaClub | КПК

247 | 32

690.46 МБ

В этой теме нет новых непрочитанных сообщений. 12 стульев (1971) DVDRip-AVC от ExKinoRay

917 | 62

3.7 ГБ

В этой теме нет новых непрочитанных сообщений. 12 стульев (1971) WEB-DLRip

82 | 3

2.19 ГБ

В этой теме нет новых непрочитанных сообщений. 12 стульев (1971) 2хDVD5 | Реставрация

402 | 21

7.83 ГБ

В этой теме нет новых непрочитанных сообщений. Бумбараш (1971) DVDRip от Youtracker

52 | 12

1.46 ГБ




Вы не можете начинать темы
Вы не можете отвечать на сообщения
Вы не можете редактировать свои сообщения
Вы не можете удалять свои сообщения
Вы не можете добавлять вложения

Перейти:  
Для Мосгорсуда, Роскомнадзора и рекламодателей: mosgorsud-torrent[собачка]yandex.ru
 Вход
ppkBB3cker v.2 © 2008-2014 @ PPK
[ Time : 0.034s | 14 Queries | GZIP : Off ]

Торрент трекер RUTOR.IN, Не можете зайти на rutor.org? Какой новый адрес рутор? Какое зеркало рутор? Не работает rutor.org и зеркала? Тогда наш торрент специально для вас. Rutor.in неофициальное зеркало rutor. В случае если у Вас заблокирован rutor или вдруг Вы не можете на него зайти, то Вы без труда сможете скачать бесплатно и без рекламы последние новинки кино, игр, сериалов и прочего у нас, на Rutor.in. Не нужно использовать прокси, чтобы зайти на рутор, достаточно воспользоваться нашим ресурсом. Все новые фильмы, игры, сериалы, книги и музыка за 2013 и 2014 годы через торрент бесплатно. Скачивайте фильмы в хорошем качестве, игры для пк, xbox, playstation без регистрации. У нас вы найдете новые Зарубежные сериалы и Русские сериалы 2013, 2014, 2015 годов. Оставайтесь с нами, качайте любимые фильмы, игры, сериалы, книги и музыку.