img image001 image001 image001 image001 image001 image001 image001 image001 image001 image001 image001 image001 image001 image001 image001

Planets Sun Sun Sun
Статистика раздачи
Автор: Снежана | Размер: 1.51 ГБ | Добавлен: 24 июл 2013
Раздают: 44    Качают: 10
Скачать торрент
Скачать торрент
Описание торрента

СообщениеДобавлено: 24 июл 2013 


Инфомация о фильме
Оригинальное название: Невероятные приключения итальянцев в России
Год выхода: 1973
Жанр: Комедия, приключения
Режиссер: Эльдар Рязанов
В ролях: Андрей Миронов, Нинетто Даволи, Антония Сантилли, Алигьеро Носкезе, Тано Чимароза, Луиджи Баллиста, Евгений Евстигнеев, Ольга Аросева
О фильме
В одной из римских больниц скончалась русская эмигрантка. Старая дама, некогда эмигрировавшая из России, поведала своей внучке Ольге, что все ее огромное состояние спрятано в Ленинграде «под львом». Это обстоятельство явилось причиной срочного отлета в Ленинград всех тех, кто случайно или специально был посвящен в эту тайну.
В СССР прибыли солидный врач, итальянский мафиози, два санитара, просто горожанин и внучка Ольга. А в Москве к ним присоединился еще и гид, который усложнил и так непростые поиски сокровищ…


Страна: СССР, Италия
Студия: Мосфильм, Dino de Laurentiis Cinematografica, Produzioni Cinematografiche Inter. Ma. Co.
Продолжительность: 01:38:00
Перевод: Оригинал
Файл
Формат: MKV
Качество: DVDRip-AVC
Видео: MPEG4 AVC 768 x 576, 25.000 fps, 1750 - 2200 Кбит/с
Звук: AC-3, 6 ch, 448 Кбит/с
Субтитры: Нет

General
Unique ID : 216980406269554414002691300521214549685 (0xA33CE7FB47C6D3A3868EB51657911EB5)
Complete name : D:DownloadsPRIKLUCHENIYA.ITALIANS.1973.x264.DVDRip.(AVC).by.Тorrent-Хzona.mkv
Format : Matroska
Format version : Version 2
File size : 1.51 GiB
Duration : 1h 38mn
Overall bit rate : 2 200 Kbps
Encoded date : UTC 2013-06-25 02:43:23
Writing application : mkvmerge v6.1.0 ('Old Devil') built on Mar 4 2013 09:10:42
Writing library : libebml v1.3.0 + libmatroska v1.4.0
Video
ID : 1
Format : AVC
Format/Info : Advanced Video Codec
Format profile : High@L4.1
Format settings, CABAC : Yes
Format settings, ReFrames : 4 frames
Codec ID : V_MPEG4/ISO/AVC
Duration : 1h 38mn
Bit rate : 1 750 Kbps
Width : 768 pixels
Height : 576 pixels
Display aspect ratio : 4:3
Frame rate mode : Constant
Frame rate : 25.000 fps
Color space : YUV
Chroma subsampling : 4:2:0
Bit depth : 8 bits
Scan type : Progressive
Bits/(Pixel*Frame) : 0.158
Stream size : 1.17 GiB (78%)
Writing library : x264 core 130 r2273 b3065e6
Encoding settings : cabac=1 / ref=3 / deblock=1:-1:-1 / analyse=0x3:0x111 / me=umh / subme=9 / psy=1 / psy_rd=1.00:0.15 / mixed_ref=1 / me_range=32 / chroma_me=1 / trellis=2 / 8x8dct=1 / cqm=0 / deadzone=21,11 / fast_pskip=0 / chroma_qp_offset=-3 / threads=3 / lookahead_threads=1 / sliced_threads=0 / nr=0 / decimate=1 / interlaced=0 / bluray_compat=0 / constrained_intra=0 / bframes=3 / b_pyramid=2 / b_adapt=0 / b_bias=0 / direct=1 / weightb=1 / open_gop=0 / weightp=2 / keyint=250 / keyint_min=25 / scenecut=40 / intra_refresh=0 / rc_lookahead=50 / rc=2pass / mbtree=1 / bitrate=1750 / ratetol=1.0 / qcomp=0.60 / qpmin=0 / qpmax=69 / qpstep=4 / cplxblur=20.0 / qblur=0.5 / ip_ratio=1.40 / aq=1:1.00
Default : Yes
Forced : No
Audio
ID : 2
Format : AC-3
Format/Info : Audio Coding 3
Mode extension : CM (complete main)
Format settings, Endianness : Big
Codec ID : A_AC3
Duration : 1h 38mn
Bit rate mode : Constant
Bit rate : 448 Kbps
Channel(s) : 6 channels
Channel positions : Front: L C R, Side: L R, LFE
Sampling rate : 48.0 KHz
Bit depth : 16 bits
Compression mode : Lossy
Stream size : 314 MiB (20%)
Default : Yes
Forced : No



Релиз от: &



   Похожие торренты   Торрент   Размер 
В этой теме нет новых непрочитанных сообщений. Невероятные приключения итальянцев в России (1973) DVDRip от GeneralFilm

584 | 36

1.75 ГБ

В этой теме нет новых непрочитанных сообщений. Невероятные приключения итальянцев в России (1973) DVDRip от Youtracker

70 | 13

1.45 ГБ

В этой теме нет новых непрочитанных сообщений. Невероятные приключения итальянцев в России (1973) DVDRip от Youtracker

138 | 20

743.95 МБ

В этой теме нет новых непрочитанных сообщений. Невероятные приключения итальянцев в России (1973) DVDRip-AVC от Youtracker

687 | 18

1.46 ГБ

В этой теме нет новых непрочитанных сообщений. Невероятные приключения итальянцев в России (1973) DVDRip от olegek70 | Реставрация

78 | 14

1.37 ГБ

В этой теме нет новых непрочитанных сообщений. Невероятные приключения итальянцев в России (1973) HDDVDRip 720p от ExKinoRay

401 | 53

3.86 ГБ

В этой теме нет новых непрочитанных сообщений. Невероятные приключения итальянцев в России (1974) DVD5 by гаврила

17 | 8

4.27 ГБ




Вы не можете начинать темы
Вы не можете отвечать на сообщения
Вы не можете редактировать свои сообщения
Вы не можете удалять свои сообщения
Вы не можете добавлять вложения

Перейти:  
Для Мосгорсуда, Роскомнадзора и рекламодателей: mosgorsud-torrent[собачка]yandex.ru
 Вход
ppkBB3cker v.2 © 2008-2014 @ PPK
[ Time : 1.282s | 17 Queries | GZIP : Off ]

cron