img image001 image001 image001 image001 image001 image001 image001 image001 image001 image001 image001 image001 image001 image001 image001

Planets Sun Sun Sun
Статистика раздачи
Автор: Снежана | Размер: 1.46 ГБ | Добавлен: 24 июл 2013
Раздают: 139    Качают: 20
Скачать торрент
Скачать торрент
Описание торрента

СообщениеДобавлено: 24 июл 2013 

#77
Страна: СССР
Производство: Мосфильм
Жанр: криминал
Год выпуска: 1970
Продолжительность: 01:30:11

Перевод: не требуется
Оригинальная аудиодорожка: русский
Cубтитры: нет

Режиссер: Анатолий Бобровский

В ролях:
Всеволод Санаев, Владислав Дворжецкий, Олег Басилашвили, Екатерина Васильева, Валерий Рыжаков, Наталия Рычагова, Владимир Смирнов, Валерий Беляков, Паул Буткевич, Дмитрий Масанов...

Описание:
Бежавший из заключения вор Карабанов крадет из музея картину Франса Хальса "Святой Лука". Полковник милиции Зорин в трудном поединке с матерым преступником Карабановым, пытающемся продать картину иностранному "туристу", одерживает победу. Фильм создан на основе подлинных фактов.…





Исходник: DVD5 R5
Тип релиза: DVDRip
Контейнер: AVI

Видео: 704x304 (2,35:1), 25 fps, XviD ~ 2111 kbps avg, 0.395 bit/pixel
Аудио: 48 kHz, Dolby AC3 2.0, 192 kbps

Раздача от:
Общее
Полное имя : Vozvrashhenie.Svjatogo.Luki.1970.DVDRip_[Youtracker]_by_AVP Studio.avi
Формат : AVI
Формат/Информация : Audio Video Interleave
Размер файла : 1,46 Гбайт
Продолжительность : 1 ч. 30 м.
Общий поток : 2313 Кбит/сек
Программа кодирования : VirtualDubModRus 1.5.10.2 (build 2542/release)
Библиотека кодирования : VirtualDubMod build 2542/release

Видео
Идентификатор : 0
Формат : MPEG-4 Visual
Профиль формата : Advanced Simple@L5
Параметр BVOP формата : 1
Параметр QPel формата : Нет
Параметр GMC формата : Без точки перехода
Параметр матрицы формата : Выборочная
Идентификатор кодека : XVID
Идентификатор кодека/Подсказка : XviD
Продолжительность : 1 ч. 30 м.
Битрейт : 2111 Кбит/сек
Ширина : 704 пикселя
Высота : 304 пикселя
Соотношение сторон : 2,35:1
Частота кадров : 25,000 кадров/сек
Цветовое пространство : YUV
Субдискретизация насыщенности : 4:2:0
Битовая глубина : 8 бит
Тип развёртки : Прогрессивная
Метод сжатия : С потерями
Бит/(Пиксели*Кадры) : 0.395
Размер потока : 1,33 Гбайт (91%)
Библиотека кодирования : XviD 65

Аудио
Идентификатор : 1
Формат : AC-3
Формат/Информация : Audio Coding 3
Расширение режима : CM (complete main)
Идентификатор кодека : 2000
Продолжительность : 1 ч. 30 м.
Вид битрейта : Постоянный
Битрейт : 192 Кбит/сек
Каналы : 2 канала
Расположение каналов : Front: L R
Частота : 48,0 КГц
Битовая глубина : 16 бит
Метод сжатия : С потерями
Размер потока : 124 Мбайт (8%)
Выравнивание : Разделение по промежуткам
Продолжительность промежутка : 40 мс. (1,00 видеокадр)
Время предзагрузки промежутка : 500 мс






   Похожие торренты   Торрент   Размер 
В этой теме нет новых непрочитанных сообщений. Возвращение "Святого Луки" (1970) DVDRip-AVC от Youtracker

10 | 5

744.22 МБ

В этой теме нет новых непрочитанных сообщений. Возвращение "Святого Луки" (1970) DVDRip от Youtracker

1 | 4

744.75 МБ

В этой теме нет новых непрочитанных сообщений. Возвращение "Святого Луки" (1970) DVD5

54 | 33

3.1 ГБ

В этой теме нет новых непрочитанных сообщений. Лубянка. Олимпиада-80. Битва за Москву. Похищение "святого Луки". Операция "Бастион" (2004) DVDRip-AVC от Тorrent-Хzona

17 | 8

1.66 ГБ

В этой теме нет новых непрочитанных сообщений. Огонёк святого Эльма / Огни святого Эльма / St. Elmo's Fire (1985) DVDRip от SergV

70 | 7

1.37 ГБ

В этой теме нет новых непрочитанных сообщений. Бег (1970) DVDRip от Youtracker

27 | 2

1.46 ГБ

В этой теме нет новых непрочитанных сообщений. Бег (1970) DVDRip от Youtracker

10 | 4

2.19 ГБ




Вы не можете начинать темы
Вы не можете отвечать на сообщения
Вы не можете редактировать свои сообщения
Вы не можете удалять свои сообщения
Вы не можете добавлять вложения

Перейти:  
Для Мосгорсуда, Роскомнадзора и рекламодателей: mosgorsud-torrent[собачка]yandex.ru
 Вход
ppkBB3cker v.2 © 2008-2014 @ PPK
[ Time : 0.139s | 15 Queries | GZIP : Off ]

Торрент трекер RUTOR.IN, Не можете зайти на rutor.org? Какой новый адрес рутор? Какое зеркало рутор? Не работает rutor.org и зеркала? Тогда наш торрент специально для вас. Rutor.in неофициальное зеркало rutor. В случае если у Вас заблокирован rutor или вдруг Вы не можете на него зайти, то Вы без труда сможете скачать бесплатно и без рекламы последние новинки кино, игр, сериалов и прочего у нас, на Rutor.in. Не нужно использовать прокси, чтобы зайти на рутор, достаточно воспользоваться нашим ресурсом. Все новые фильмы, игры, сериалы, книги и музыка за 2013 и 2014 годы через торрент бесплатно. Скачивайте фильмы в хорошем качестве, игры для пк, xbox, playstation без регистрации. У нас вы найдете новые Зарубежные сериалы и Русские сериалы 2013, 2014, 2015 годов. Оставайтесь с нами, качайте любимые фильмы, игры, сериалы, книги и музыку.