img image001 image001 image001 image001 image001 image001 image001 image001 image001 image001 image001 image001 image001 image001 image001

Planets Sun Sun Sun
Статистика раздачи
Автор: Снежана | Размер: 1.46 ГБ | Добавлен: 24 июл 2013
Раздают: 8    Качают: 3
Скачать торрент
Скачать торрент
Описание торрента

СообщениеДобавлено: 24 июл 2013 

#77
Страна: СССР
Производство: Мосфильм
Жанр: драма
Год выпуска: 1976
Продолжительность: 01:28:09

Перевод: не требуется
Оригинальная аудиодорожка: русский
Cубтитры: нет

Режиссер: Николай Губенко

В ролях:
Юозас Будрайтис (озвучание - Николай Губенко), Алёша Черствов, Георгий Бурков, Александр Калягин, Жанна Болотова, Ролан Быков, Николай Губенко, Наталья Гундарева, Евгений Евстигнеев, Зоя Евсеева, Бухути Закариадзе, Пантелеймон Крымов (озвучание - Андрей Попов), Виктор Филиппов, Валентина Березуцкая, Даниил Нетребин, Георгий Кавтарадзе, Людмила Шагалова, Михаил Херхеулидзе, Николай Волков, Дмитрий Бессонов, Оля Строгова, Саша Поляков, Андрей Болдин, Светлана Коновалова, Эльза Леждей, Лариса Маркарьян...

Описание:
Писатель Алексей Бартенев возвращается туда, где провёл детство, - в интернат для детей войны. Алексей очень хочет найти своих братьев Дениса и Сергея, которых совсем не помнит. Всех их в детские годы разметала по жизни Великая Отечественная война. Сестра, после гибели на фронте отца и самоубийства матери, до четырнадцати лет заботилась о самом младшем в семье ребёнке - об Алексее. Они вместе голодали и воровали еду. Печаль и радость, вера и отчаянье тесно переплетаются в сознании писателя Алексея Бертенева, когда память возвращает его в детство. А детство этого поколения было нелегким — оно пришлось на суровые годы войны...





Исходник: DVD5 R5
Тип релиза: DVDRip
Контейнер: AVI

Видео: 720x528 (4:3), 25 fps, XviD ~ 2165 kbps avg, 0.228 bit/pixel
Аудио: 48 kHz, Dolby AC3 1.0, 192 kbps

Раздача от:
Общее
Полное имя : Podranki.1976.DVDRip_[Youtracker]_by_AVP Studio.avi
Формат : AVI
Формат/Информация : Audio Video Interleave
Размер файла : 1,46 Гбайт
Продолжительность : 1 ч. 28 м.
Общий поток : 2367 Кбит/сек
Программа кодирования : VirtualDubModRus 1.5.10.2 (build 2542/release)
Библиотека кодирования : VirtualDubMod build 2542/release

Видео
Идентификатор : 0
Формат : MPEG-4 Visual
Профиль формата : Advanced Simple@L5
Параметр BVOP формата : 1
Параметр QPel формата : Нет
Параметр GMC формата : Без точки перехода
Параметр матрицы формата : Выборочная
Идентификатор кодека : XVID
Идентификатор кодека/Подсказка : XviD
Продолжительность : 1 ч. 28 м.
Битрейт : 2165 Кбит/сек
Ширина : 720 пикселей
Высота : 528 пикселей
Соотношение сторон : 4:3
Частота кадров : 25,000 кадров/сек
Цветовое пространство : YUV
Субдискретизация насыщенности : 4:2:0
Битовая глубина : 8 бит
Тип развёртки : Прогрессивная
Метод сжатия : С потерями
Бит/(Пиксели*Кадры) : 0.228
Размер потока : 1,33 Гбайт (91%)
Библиотека кодирования : XviD 65

Аудио
Идентификатор : 1
Формат : AC-3
Формат/Информация : Audio Coding 3
Расширение режима : CM (complete main)
Идентификатор кодека : 2000
Продолжительность : 1 ч. 28 м.
Вид битрейта : Постоянный
Битрейт : 192 Кбит/сек
Каналы : 1 канал
Расположение каналов : Front: C
Частота : 48,0 КГц
Битовая глубина : 16 бит
Метод сжатия : С потерями
Размер потока : 121 Мбайт (8%)
Выравнивание : Разделение по промежуткам
Продолжительность промежутка : 40 мс. (1,00 видеокадр)
Время предзагрузки промежутка : 500 мс





   Похожие торренты   Торрент   Размер 
В этой теме нет новых непрочитанных сообщений. Подранки (1976) DVDRip от Youtracker

5 | 4

745.03 МБ

В этой теме нет новых непрочитанных сообщений. Подранки (1976) DVDRip-AVC от Youtracker

25 | 5

1.46 ГБ

В этой теме нет новых непрочитанных сообщений. Подранки (1976) DVDRip

14 | 125

699.71 МБ

В этой теме нет новых непрочитанных сообщений. 38 попугаев [01-10 из 10] (1976-1979) DVDRip от Youtracker

245 | 11

741.3 МБ

В этой теме нет новых непрочитанных сообщений. 38 попугаев [01-10 из 10] (1976-1979) DVDRip-AVC от Youtracker

36 | 3

1.46 ГБ

В этой теме нет новых непрочитанных сообщений. Приключения капитана Врунгеля [01-13 из 13] (1976-1979) DVDRip-AVC от Youtracker

73 | 9

1.4 ГБ

В этой теме нет новых непрочитанных сообщений. 12 подвигов Астерикса / Les douze travaux d'Asterix / The Twelve Tasks of Asterix (1976) DVDRip от Youtracker

7 | 9

744.26 МБ




Вы не можете начинать темы
Вы не можете отвечать на сообщения
Вы не можете редактировать свои сообщения
Вы не можете удалять свои сообщения
Вы не можете добавлять вложения

Перейти:  
Для Мосгорсуда, Роскомнадзора и рекламодателей: mosgorsud-torrent[собачка]yandex.ru
 Вход
ppkBB3cker v.2 © 2008-2014 @ PPK
[ Time : 0.745s | 14 Queries | GZIP : Off ]

Торрент трекер RUTOR.IN, Не можете зайти на rutor.org? Какой новый адрес рутор? Какое зеркало рутор? Не работает rutor.org и зеркала? Тогда наш торрент специально для вас. Rutor.in неофициальное зеркало rutor. В случае если у Вас заблокирован rutor или вдруг Вы не можете на него зайти, то Вы без труда сможете скачать бесплатно и без рекламы последние новинки кино, игр, сериалов и прочего у нас, на Rutor.in. Не нужно использовать прокси, чтобы зайти на рутор, достаточно воспользоваться нашим ресурсом. Все новые фильмы, игры, сериалы, книги и музыка за 2013 и 2014 годы через торрент бесплатно. Скачивайте фильмы в хорошем качестве, игры для пк, xbox, playstation без регистрации. У нас вы найдете новые Зарубежные сериалы и Русские сериалы 2013, 2014, 2015 годов. Оставайтесь с нами, качайте любимые фильмы, игры, сериалы, книги и музыку.