img image001 image001 image001 image001 image001 image001 image001 image001 image001 image001 image001 image001 image001 image001 image001

Planets Sun Sun Sun
Статистика раздачи
Автор: Снежана | Размер: 1.46 ГБ | Добавлен: 24 июл 2013
Раздают: 25    Качают: 5
Скачать торрент
Скачать торрент
Описание торрента

СообщениеДобавлено: 24 июл 2013 

#77
Страна: СССР
Производство: Мосфильм
Жанр: драма
Год выпуска: 1976
Продолжительность: 01:28:09

Перевод: не требуется
Оригинальная аудиодорожка: русский
Cубтитры: нет

Режиссер: Николай Губенко

В ролях:
Юозас Будрайтис (озвучание - Николай Губенко), Алёша Черствов, Георгий Бурков, Александр Калягин, Жанна Болотова, Ролан Быков, Николай Губенко, Наталья Гундарева, Евгений Евстигнеев, Зоя Евсеева, Бухути Закариадзе, Пантелеймон Крымов (озвучание - Андрей Попов), Виктор Филиппов, Валентина Березуцкая, Даниил Нетребин, Георгий Кавтарадзе, Людмила Шагалова, Михаил Херхеулидзе, Николай Волков, Дмитрий Бессонов, Оля Строгова, Саша Поляков, Андрей Болдин, Светлана Коновалова, Эльза Леждей, Лариса Маркарьян...

Описание:
Писатель Алексей Бартенев возвращается туда, где провёл детство, - в интернат для детей войны. Алексей очень хочет найти своих братьев Дениса и Сергея, которых совсем не помнит. Всех их в детские годы разметала по жизни Великая Отечественная война. Сестра, после гибели на фронте отца и самоубийства матери, до четырнадцати лет заботилась о самом младшем в семье ребёнке - об Алексее. Они вместе голодали и воровали еду. Печаль и радость, вера и отчаянье тесно переплетаются в сознании писателя Алексея Бертенева, когда память возвращает его в детство. А детство этого поколения было нелегким — оно пришлось на суровые годы войны...





Исходник: DVD5 R5
Тип релиза: DVDRip
Контейнер: AVI

Видео: 720->768x556 (1,381:1), 25 fps, XviD ~ 2170 kbps avg, 0.217 bit/pixel
Аудио: 48 kHz, Dolby AC3 1.0, 192 kbps

Раздача от:
Общее
Полное имя : Podranki.1976.DVDRip-AVC_[Youtracker]_by_AVP Studio.mkv
Формат : Matroska
Версия формата : Version 2
Размер файла : 1,46 Гбайт
Продолжительность : 1 ч. 28 м.
Общий поток : 2364 Кбит/сек
Дата кодирования : UTC 2013-06-30 06:03:03
Программа кодирования : mkvmerge v5.0.1 ('Es ist Sommer') built on Nov 6 2011 16:23:40
Библиотека кодирования : libebml v1.2.2 + libmatroska v1.3.0

Видео
Идентификатор : 1
Формат : AVC
Формат/Информация : Advanced Video Codec
Профиль формата : High@L4.1
Параметр CABAC формата : Да
Параметр ReFrames формата : 11 кадров
Идентификатор кодека : V_MPEG4/ISO/AVC
Продолжительность : 1 ч. 28 м.
Битрейт : 2170 Кбит/сек
Ширина : 720 пикселей
Высота : 556 пикселей
Соотношение сторон : 1,381
Частота кадров : 25,000 кадров/сек
Цветовое пространство : YUV
Субдискретизация насыщенности : 4:2:0
Битовая глубина : 8 бит
Тип развёртки : Прогрессивная
Бит/(Пиксели*Кадры) : 0.217
Размер потока : 1,31 Гбайт (90%)
Библиотека кодирования : x264 core 130 r2273 b3065e6
Настройки программы : cabac=1 / ref=11 / deblock=1:-2:-1 / analyse=0x3:0x113 / me=umh / subme=9 / psy=1 / psy_rd=1.00:0.20 / mixed_ref=1 / me_range=32 / chroma_me=1 / trellis=1 / 8x8dct=1 / cqm=0 / deadzone=21,11 / fast_pskip=0 / chroma_qp_offset=-3 / threads=3 / lookahead_threads=1 / sliced_threads=0 / nr=0 / decimate=0 / interlaced=0 / bluray_compat=0 / constrained_intra=0 / bframes=8 / b_pyramid=2 / b_adapt=2 / b_bias=0 / direct=3 / weightb=1 / open_gop=0 / weightp=2 / keyint=250 / keyint_min=25 / scenecut=40 / intra_refresh=0 / rc_lookahead=60 / rc=2pass / mbtree=1 / bitrate=2170 / ratetol=1.0 / qcomp=0.60 / qpmin=0 / qpmax=69 / qpstep=4 / cplxblur=20.0 / qblur=0.5 / ip_ratio=1.40 / aq=1:1.00
Default : Да
Forced : Нет

Аудио
Идентификатор : 2
Формат : AC-3
Формат/Информация : Audio Coding 3
Расширение режима : CM (complete main)
Идентификатор кодека : A_AC3
Продолжительность : 1 ч. 28 м.
Вид битрейта : Постоянный
Битрейт : 192 Кбит/сек
Каналы : 1 канал
Расположение каналов : Front: C
Частота : 48,0 КГц
Битовая глубина : 16 бит
Метод сжатия : С потерями
Размер потока : 121 Мбайт (8%)
Default : Да
Forced : Нет





   Похожие торренты   Торрент   Размер 
В этой теме нет новых непрочитанных сообщений. Подранки (1976) DVDRip от Youtracker

5 | 4

745.03 МБ

В этой теме нет новых непрочитанных сообщений. Подранки (1976) DVDRip от Youtracker

8 | 3

1.46 ГБ

В этой теме нет новых непрочитанных сообщений. Подранки (1976) DVDRip

14 | 125

699.71 МБ

В этой теме нет новых непрочитанных сообщений. 38 попугаев [01-10 из 10] (1976-1979) DVDRip от Youtracker

245 | 11

741.3 МБ

В этой теме нет новых непрочитанных сообщений. 38 попугаев [01-10 из 10] (1976-1979) DVDRip-AVC от Youtracker

36 | 3

1.46 ГБ

В этой теме нет новых непрочитанных сообщений. Приключения капитана Врунгеля [01-13 из 13] (1976-1979) DVDRip-AVC от Youtracker

73 | 9

1.4 ГБ

В этой теме нет новых непрочитанных сообщений. 12 подвигов Астерикса / Les douze travaux d'Asterix / The Twelve Tasks of Asterix (1976) DVDRip от Youtracker

20 | 4

1.45 ГБ




Вы не можете начинать темы
Вы не можете отвечать на сообщения
Вы не можете редактировать свои сообщения
Вы не можете удалять свои сообщения
Вы не можете добавлять вложения

Перейти:  
Для Мосгорсуда, Роскомнадзора и рекламодателей: mosgorsud-torrent[собачка]yandex.ru
 Вход
ppkBB3cker v.2 © 2008-2014 @ PPK
[ Time : 0.039s | 15 Queries | GZIP : Off ]

Торрент трекер RUTOR.IN, Не можете зайти на rutor.org? Какой новый адрес рутор? Какое зеркало рутор? Не работает rutor.org и зеркала? Тогда наш торрент специально для вас. Rutor.in неофициальное зеркало rutor. В случае если у Вас заблокирован rutor или вдруг Вы не можете на него зайти, то Вы без труда сможете скачать бесплатно и без рекламы последние новинки кино, игр, сериалов и прочего у нас, на Rutor.in. Не нужно использовать прокси, чтобы зайти на рутор, достаточно воспользоваться нашим ресурсом. Все новые фильмы, игры, сериалы, книги и музыка за 2013 и 2014 годы через торрент бесплатно. Скачивайте фильмы в хорошем качестве, игры для пк, xbox, playstation без регистрации. У нас вы найдете новые Зарубежные сериалы и Русские сериалы 2013, 2014, 2015 годов. Оставайтесь с нами, качайте любимые фильмы, игры, сериалы, книги и музыку.
cron