img image001 image001 image001 image001 image001 image001 image001 image001 image001 image001 image001 image001 image001 image001 image001

Planets Sun Sun Sun
Статистика раздачи
Автор: Снежана | Размер: 2.18 ГБ | Добавлен: 24 июл 2013
Раздают: 21    Качают: 6
Скачать торрент
Скачать торрент
Описание торрента

СообщениеДобавлено: 24 июл 2013 

#77
Страна: СССР
Производство: Студия Довженко, Гостелерадио

Жанр: мюзикл, комедия, приключения
Год выпуска: 1971
Продолжительность: 02:06:31 (01:03:34 + 01:02:57)

Перевод: не требуется
Оригинальная аудиодорожка: русский
Cубтитры: нет

Режиссер: Николай Рашеев, Абрам Народицкий

В ролях:
Валерий Золотухин, Юрий Смирнов, Наталья Дмитриева, Екатерина Васильева, Александр Хочинский, Александр Белина, Леонид Бакштаев, Лев Дуров, Роман Ткачук, Николай Дупак, Маргарита Криницына, Лев Перфилов, Александр Филиппенко, Юрий Шерстнев...

Описание:
"Наплявать, наплявать, надоело воевать! Были мы солдаты, а теперь - до хаты..." Рядовой Бумбараш возвращается с Первой мировой войны в родное село. Неунывающий солдат был по ошибке объявлен погибшим. Об этом он узнал, когда вернулся в родные места: его коня и телегу продали, а невесту Варьку отдали другому. Признавать живым его не хотят, так как деньги на панихиду уже истрачены, а нехитрое крестьянское имущество "позаимствовано" родным братом. Признал его только друг, надевший на картуз красную звезду и уверенный в том, что после победы революции на каждую семью будет по дворцу. Но "чай с лимоном на балконе" сразу не завоюешь, а в стране тем временем полная неразбериха - красные, белые, зеленые, бандиты, анархисты. Среди всего этого хаоса Бумбараш старается устроить свою жизнь и личное счастье...





Исходник: DVD9 R5
Тип релиза: DVDRip
Контейнер: AVI

Видео: 704x528 (4:3), 25 fps, XviD ~ 2077 kbps avg, 0.224 bit/pixel
Аудио: 48 kHz, Dolby AC3 5.1, 384 kbps

Раздача от:
Общее
Полное имя : Bumbarash.1971.DVDRip_[Youtracker]_by_AVP Studio.avi
Формат : AVI
Формат/Информация : Audio Video Interleave
Размер файла : 1,10 Гбайт
Продолжительность : 1 ч. 3 м.
Общий поток : 2471 Кбит/сек
Программа кодирования : VirtualDubModRus 1.5.10.2 (build 2542/release)
Библиотека кодирования : VirtualDubMod build 2542/release

Видео
Идентификатор : 0
Формат : MPEG-4 Visual
Профиль формата : Advanced Simple@L5
Параметр BVOP формата : 1
Параметр QPel формата : Нет
Параметр GMC формата : Без точки перехода
Параметр матрицы формата : Выборочная
Идентификатор кодека : XVID
Идентификатор кодека/Подсказка : XviD
Продолжительность : 1 ч. 3 м.
Битрейт : 2077 Кбит/сек
Ширина : 704 пикселя
Высота : 528 пикселей
Соотношение сторон : 4:3
Частота кадров : 25,000 кадров/сек
Цветовое пространство : YUV
Субдискретизация насыщенности : 4:2:0
Битовая глубина : 8 бит
Тип развёртки : Прогрессивная
Метод сжатия : С потерями
Бит/(Пиксели*Кадры) : 0.224
Размер потока : 944 Мбайт (84%)
Библиотека кодирования : XviD 65

Аудио
Идентификатор : 1
Формат : AC-3
Формат/Информация : Audio Coding 3
Расширение режима : CM (complete main)
Идентификатор кодека : 2000
Продолжительность : 1 ч. 3 м.
Вид битрейта : Постоянный
Битрейт : 384 Кбит/сек
Каналы : 6 каналов
Расположение каналов : Front: L C R, Side: L R, LFE
Частота : 48,0 КГц
Битовая глубина : 16 бит
Метод сжатия : С потерями
Размер потока : 175 Мбайт (16%)
Выравнивание : Разделение по промежуткам
Продолжительность промежутка : 40 мс. (1,00 видеокадр)
Время предзагрузки промежутка : 500 мс





   Похожие торренты   Торрент   Размер 
В этой теме нет новых непрочитанных сообщений. Бумбараш (1971) DVDRip от Youtracker

52 | 12

1.46 ГБ

В этой теме нет новых непрочитанных сообщений. Бумбараш (1971) DVDRip-AVC от Youtracker

44 | 18

2.19 ГБ

В этой теме нет новых непрочитанных сообщений. Бумбараш (1971) DVDRip-AVC от ExKinoRay

529 | 39

2.9 ГБ

В этой теме нет новых непрочитанных сообщений. 12 стульев (1971) DVDRip-AVC от Youtracker

268 | 20

2.19 ГБ

В этой теме нет новых непрочитанных сообщений. 12 стульев (1971) DVDRip от Youtracker

344 | 19

1.45 ГБ

В этой теме нет новых непрочитанных сообщений. 12 стульев (1971) DVDRip от Youtracker

202 | 19

2.82 ГБ

В этой теме нет новых непрочитанных сообщений. Старики-разбойники (1971) DVDRip от Youtracker

18 | 9

744.18 МБ




Вы не можете начинать темы
Вы не можете отвечать на сообщения
Вы не можете редактировать свои сообщения
Вы не можете удалять свои сообщения
Вы не можете добавлять вложения

Перейти:  
Для Мосгорсуда, Роскомнадзора и рекламодателей: mosgorsud-torrent[собачка]yandex.ru
 Вход
ppkBB3cker v.2 © 2008-2014 @ PPK
[ Time : 0.033s | 14 Queries | GZIP : Off ]

Торрент трекер RUTOR.IN, Не можете зайти на rutor.org? Какой новый адрес рутор? Какое зеркало рутор? Не работает rutor.org и зеркала? Тогда наш торрент специально для вас. Rutor.in неофициальное зеркало rutor. В случае если у Вас заблокирован rutor или вдруг Вы не можете на него зайти, то Вы без труда сможете скачать бесплатно и без рекламы последние новинки кино, игр, сериалов и прочего у нас, на Rutor.in. Не нужно использовать прокси, чтобы зайти на рутор, достаточно воспользоваться нашим ресурсом. Все новые фильмы, игры, сериалы, книги и музыка за 2013 и 2014 годы через торрент бесплатно. Скачивайте фильмы в хорошем качестве, игры для пк, xbox, playstation без регистрации. У нас вы найдете новые Зарубежные сериалы и Русские сериалы 2013, 2014, 2015 годов. Оставайтесь с нами, качайте любимые фильмы, игры, сериалы, книги и музыку.