img image001 image001 image001 image001 image001 image001 image001 image001 image001 image001 image001 image001 image001 image001 image001

Planets Sun Sun Sun
Статистика раздачи
Автор: Снежана | Размер: 7.54 ГБ | Добавлен: 24 июл 2013
Раздают: 13    Качают: 10
Скачать торрент
Скачать торрент
Описание торрента

СообщениеДобавлено: 24 июл 2013 

#77

Информация о фильме
Оригинальное название: Перегон
Год выпуска: 2006
Жанр: Драма, комедия, военный, история, ВОВ
Режиссер: Александр Рогожкин
В ролях: Алексей Серебряков, Даниил Страхов, Анастасия Немоляева, Светлана Строганова, Юрий Ицков, Юрий Орлов (II), Кирилл Ульянов, Сергей Константинов, Алексей Петров (II), Роман Кельчин, Иван Прилль, Олег Малкин, Артем Волобуев, Степан Абрамов, Андрей Шибаршин, Дмитрий Лысенков, Грант Петросян, Захар Ронжин, Артем Бордовский, Михаил Сиворин, Кэтрин Инноченте, Сара Маргарет Ратли, Сара Булли, Кристофер Делсман, Геннадий Алексеев, Нэйтан Томас Уайт, Евгений Качалов, Руслан Смирнов, Александр Орловский, Анна Рудь, Анатолий Устинов (II), Сергей Вензелев, Екатерина Макарова, Сергей Павлов (II)

О фильме: Это история русских, американцев, аборигенов Крайнего Севера, история мужчины и женщины на войне. Любовь русского офицера и американской летчицы Мэри Маклейн сталкивается с языковыми и культурными барьерами, из-за чего возникает множество курьезных и нелепых, а иногда и трагических ситуаций. А рядом с полярным аэродромом существует другой мир - мир местных эскимосов, живущих далекой от войны жизнью. Правда солдат непонятна эскимосу, ведь: «Человек стреляет в зверя, чтобы съесть его или получить шкуру, из которой можно сделать одежду или лодку. Тогда зачем он стреляет в другого человека, если не собирается его есть?».


Страна: Россия
Студия: Кинокомпания СТВ
Продолжительность: 02:25:48

Файл
Кодек: x264
Качество: BDRip 720p
Видео: MPEG-4 AVC, 5800 Кбит/c, 1280x544, 23.976 кадр/c
Аудио #1: Русский (АС3, 6 ch, 448 Кбит/c)
Аудио #2: Русский (DTS, 6 ch, 1152 Кбит/c)
Субтитры: Русские (для английских и чукотских диалогов)

Семпл




---[Information] [30.06.2013 20:49:10] x264 [info]: frame I:1452 Avg QP:15.91 size:129711
---[Information] [30.06.2013 20:49:10] x264 [info]: frame P:43609 Avg QP:18.46 size: 56963
---[Information] [30.06.2013 20:49:10] x264 [info]: frame B:164691 Avg QP:20.30 size: 22279
_________________________________________________________________________________________________
Общее
Уникальный идентификатор : 175022864214995852291295191225505191038 (0x83AC2D719591A804B6C2F781EF38947E)
Полное имя : D:Mои раздачиPeregon.2006.BDRip.(720p)-MediaClub.mkv
Формат : Matroska
Версия формата : Version 2
Размер файла : 7,54 Гбайт
Продолжительность : 2 ч. 25 м.
Общий поток : 7402 Кбит/сек
Название фильма : Перегон (MediaClub-kaspr)
Дата кодирования : UTC 2013-06-30 17:59:37
Программа кодирования : mkvmerge v5.7.0 ('The Whirlwind') built on Aug 7 2012 14:11:40
Библиотека кодирования : libebml v1.2.3 + libmatroska v1.3.0

Видео
Идентификатор : 1
Формат : AVC
Формат/Информация : Advanced Video Codec
Профиль формата : High@L4.1
Параметр CABAC формата : Да
Параметр ReFrames формата : 8 кадров
Идентификатор кодека : V_MPEG4/ISO/AVC
Продолжительность : 2 ч. 25 м.
Битрейт : 5800 Кбит/сек
Ширина : 1280 пикселей
Высота : 544 пикселя
Соотношение сторон : 2,35:1
Режим частоты кадров : Постоянный
Частота кадров : 23,976 кадра/сек
Цветовое пространство : YUV
Субдискретизация насыщенности : 4:2:0
Битовая глубина : 8 бит
Тип развёртки : Прогрессивная
Бит/(Пиксели*Кадры) : 0.347
Размер потока : 5,76 Гбайт (76%)
Заголовок : Перегон (MediaClub-kaspr)
Библиотека кодирования : x264 core 133 r2334 a3ac64b
Настройки программы : cabac=1 / ref=8 / deblock=1:-3:-3 / analyse=0x3:0x133 / me=umh / subme=11 / psy=1 / psy_rd=1.00:0.10 / mixed_ref=1 / me_range=32 / chroma_me=1 / trellis=2 / 8x8dct=1 / cqm=0 / deadzone=21,11 / fast_pskip=0 / chroma_qp_offset=-3 / threads=12 / lookahead_threads=2 / sliced_threads=0 / nr=0 / decimate=0 / interlaced=0 / bluray_compat=0 / constrained_intra=0 / bframes=9 / b_pyramid=2 / b_adapt=2 / b_bias=0 / direct=3 / weightb=1 / open_gop=0 / weightp=2 / keyint=240 / keyint_min=22 / scenecut=40 / intra_refresh=0 / rc=2pass / mbtree=0 / bitrate=5800 / ratetol=1.0 / qcomp=0.60 / qpmin=0 / qpmax=69 / qpstep=4 / cplxblur=20.0 / qblur=0.5 / ip_ratio=1.40 / pb_ratio=1.30 / aq=1:1.00
Default : Да
Forced : Да

Аудио #1
Идентификатор : 2
Формат : AC-3
Формат/Информация : Audio Coding 3
Расширение режима : CM (complete main)
Параметр Endianness формата : Big
Идентификатор кодека : A_AC3
Продолжительность : 2 ч. 25 м.
Вид битрейта : Постоянный
Битрейт : 448 Кбит/сек
Каналы : 6 каналов
Расположение каналов : Front: L C R, Side: L R, LFE
Частота : 48,0 КГц
Битовая глубина : 16 бит
Метод сжатия : С потерями
Размер потока : 467 Мбайт (6%)
Заголовок : AC3
Язык : Russian
Default : Да
Forced : Да

Аудио #2
Идентификатор : 3
Формат : DTS
Формат/Информация : Digital Theater Systems
Идентификатор кодека : A_DTS
Продолжительность : 2 ч. 25 м.
Вид битрейта : Постоянный
Битрейт : 1152 Кбит/сек
Каналы : 6 каналов
Расположение каналов : Front: L C R, Side: L R, LFE
Частота : 48,0 КГц
Битовая глубина : 16 бит
Метод сжатия : С потерями
Размер потока : 1,17 Гбайт (16%)
Заголовок : DTS
Язык : Russian
Default : Нет
Forced : Нет

Текст
Идентификатор : 4
Формат : UTF-8
Идентификатор кодека : S_TEXT/UTF8
Идентификатор кодека/Информация : UTF-8 Plain Text
Заголовок : Форсированные
Язык : Russian
Default : Да
Forced : Да

Меню
00:00:00.000 : en:Chapter 01
00:12:45.473 : en:Chapter 02
00:23:58.895 : en:Chapter 03
00:35:42.306 : en:Chapter 04
00:49:12.866 : en:Chapter 05
01:01:13.211 : en:Chapter 06
01:13:30.739 : en:Chapter 07
01:24:11.129 : en:Chapter 08
01:36:44.632 : en:Chapter 09
01:54:30.363 : en:Chapter 10
02:04:20.035 : en:Chapter 11
02:17:26.154 : en:Chapter 12


Релиз:



   Похожие торренты   Торрент   Размер 
В этой теме нет новых непрочитанных сообщений. Перегон (2006) BDRip 1080p

6 | 6

4.36 ГБ

В этой теме нет новых непрочитанных сообщений. Перегон (2006) BDRip от HQ-VIDEO

11 | 6

2.18 ГБ

В этой теме нет новых непрочитанных сообщений. Перегон (2006) HDRip

26 | 5

1.45 ГБ

В этой теме нет новых непрочитанных сообщений. Перегон (2006) DVDRip

95 | 7

707.67 МБ

В этой теме нет новых непрочитанных сообщений. Громобой / Stormbreaker (2006) BDRip 720p от MediaClub | D

140 | 55

5.03 ГБ

В этой теме нет новых непрочитанных сообщений. Месть / The Return (2006) BDRip 720p от MediaClub | D

145 | 16

3.5 ГБ

В этой теме нет новых непрочитанных сообщений. Посейдон / Poseidon (2006) BDRip 720p от MediaClub | D, P, A

63 | 9

7.28 ГБ




Вы не можете начинать темы
Вы не можете отвечать на сообщения
Вы не можете редактировать свои сообщения
Вы не можете удалять свои сообщения
Вы не можете добавлять вложения

Перейти:  
Для Мосгорсуда, Роскомнадзора и рекламодателей: mosgorsud-torrent[собачка]yandex.ru
 Вход
ppkBB3cker v.2 © 2008-2014 @ PPK
[ Time : 0.035s | 15 Queries | GZIP : Off ]

Торрент трекер RUTOR.IN, Не можете зайти на rutor.org? Какой новый адрес рутор? Какое зеркало рутор? Не работает rutor.org и зеркала? Тогда наш торрент специально для вас. Rutor.in неофициальное зеркало rutor. В случае если у Вас заблокирован rutor или вдруг Вы не можете на него зайти, то Вы без труда сможете скачать бесплатно и без рекламы последние новинки кино, игр, сериалов и прочего у нас, на Rutor.in. Не нужно использовать прокси, чтобы зайти на рутор, достаточно воспользоваться нашим ресурсом. Все новые фильмы, игры, сериалы, книги и музыка за 2013 и 2014 годы через торрент бесплатно. Скачивайте фильмы в хорошем качестве, игры для пк, xbox, playstation без регистрации. У нас вы найдете новые Зарубежные сериалы и Русские сериалы 2013, 2014, 2015 годов. Оставайтесь с нами, качайте любимые фильмы, игры, сериалы, книги и музыку.
cron