img image001 image001 image001 image001 image001 image001 image001 image001 image001 image001 image001 image001 image001 image001 image001

Planets Sun Sun Sun
Статистика раздачи
Автор: Снежана | Размер: 2.19 ГБ | Добавлен: 24 июл 2013
Раздают: 44    Качают: 18
Скачать торрент
Скачать торрент
Описание торрента

СообщениеДобавлено: 24 июл 2013 

#77
Страна: СССР
Производство: Студия Довженко, Гостелерадио

Жанр: мюзикл, комедия, приключения
Год выпуска: 1971
Продолжительность: 02:06:31 (01:03:34 + 01:02:57)

Перевод: не требуется
Оригинальная аудиодорожка: русский
Cубтитры: нет

Режиссер: Николай Рашеев, Абрам Народицкий

В ролях:
Валерий Золотухин, Юрий Смирнов, Наталья Дмитриева, Екатерина Васильева, Александр Хочинский, Александр Белина, Леонид Бакштаев, Лев Дуров, Роман Ткачук, Николай Дупак, Маргарита Криницына, Лев Перфилов, Александр Филиппенко, Юрий Шерстнев...

Описание:
"Наплявать, наплявать, надоело воевать! Были мы солдаты, а теперь - до хаты..." Рядовой Бумбараш возвращается с Первой мировой войны в родное село. Неунывающий солдат был по ошибке объявлен погибшим. Об этом он узнал, когда вернулся в родные места: его коня и телегу продали, а невесту Варьку отдали другому. Признавать живым его не хотят, так как деньги на панихиду уже истрачены, а нехитрое крестьянское имущество "позаимствовано" родным братом. Признал его только друг, надевший на картуз красную звезду и уверенный в том, что после победы революции на каждую семью будет по дворцу. Но "чай с лимоном на балконе" сразу не завоюешь, а в стране тем временем полная неразбериха - красные, белые, зеленые, бандиты, анархисты. Среди всего этого хаоса Бумбараш старается устроить свою жизнь и личное счастье...





Исходник: DVD9 R5
Тип релиза: DVDRip-AVC
Контейнер: MKV

Видео: 704->768x576 (4:3), 25 fps, H264 ~ 2087 kbps avg, 0.206 bit/pixel
Аудио: 48 kHz, Dolby AC3 5.1, 384 kbps

Раздача от:
Общее
Полное имя : Bumbarash.1971.DVDRip-AVC_[Youtracker]_by_AVP Studio.mkv
Формат : Matroska
Версия формата : Version 2
Размер файла : 1,10 Гбайт
Продолжительность : 1 ч. 3 м.
Общий поток : 2473 Кбит/сек
Дата кодирования : UTC 2013-07-01 22:45:11
Программа кодирования : mkvmerge v5.0.1 ('Es ist Sommer') built on Nov 6 2011 16:23:40
Библиотека кодирования : libebml v1.2.2 + libmatroska v1.3.0

Видео
Идентификатор : 1
Формат : AVC
Формат/Информация : Advanced Video Codec
Профиль формата : High@L4.1
Параметр CABAC формата : Да
Параметр ReFrames формата : 11 кадров
Идентификатор кодека : V_MPEG4/ISO/AVC
Продолжительность : 1 ч. 3 м.
Битрейт : 2087 Кбит/сек
Ширина : 704 пикселя
Высота : 576 пикселей
Соотношение сторон : 4:3
Частота кадров : 25,000 кадров/сек
Стандарт вещания : PAL
Цветовое пространство : YUV
Субдискретизация насыщенности : 4:2:0
Битовая глубина : 8 бит
Тип развёртки : Прогрессивная
Бит/(Пиксели*Кадры) : 0.206
Размер потока : 927 Мбайт (82%)
Библиотека кодирования : x264 core 130 r2273 b3065e6
Настройки программы : cabac=1 / ref=11 / deblock=1:-2:-1 / analyse=0x3:0x113 / me=umh / subme=9 / psy=1 / psy_rd=1.00:0.20 / mixed_ref=1 / me_range=32 / chroma_me=1 / trellis=1 / 8x8dct=1 / cqm=0 / deadzone=21,11 / fast_pskip=0 / chroma_qp_offset=-3 / threads=3 / lookahead_threads=1 / sliced_threads=0 / nr=0 / decimate=0 / interlaced=0 / bluray_compat=0 / constrained_intra=0 / bframes=8 / b_pyramid=2 / b_adapt=2 / b_bias=0 / direct=3 / weightb=1 / open_gop=0 / weightp=2 / keyint=250 / keyint_min=25 / scenecut=40 / intra_refresh=0 / rc_lookahead=60 / rc=2pass / mbtree=1 / bitrate=2087 / ratetol=1.0 / qcomp=0.60 / qpmin=0 / qpmax=69 / qpstep=4 / cplxblur=20.0 / qblur=0.5 / ip_ratio=1.40 / aq=1:1.00
Default : Да
Forced : Нет

Аудио
Идентификатор : 2
Формат : AC-3
Формат/Информация : Audio Coding 3
Расширение режима : CM (complete main)
Идентификатор кодека : A_AC3
Продолжительность : 1 ч. 3 м.
Вид битрейта : Постоянный
Битрейт : 384 Кбит/сек
Каналы : 6 каналов
Расположение каналов : Front: L C R, Side: L R, LFE
Частота : 48,0 КГц
Битовая глубина : 16 бит
Метод сжатия : С потерями
Размер потока : 175 Мбайт (16%)
Default : Да
Forced : Нет





   Похожие торренты   Торрент   Размер 
В этой теме нет новых непрочитанных сообщений. Бумбараш (1971) DVDRip от Youtracker

21 | 6

2.18 ГБ

В этой теме нет новых непрочитанных сообщений. Бумбараш (1971) DVDRip от Youtracker

52 | 12

1.46 ГБ

В этой теме нет новых непрочитанных сообщений. Бумбараш (1971) DVDRip-AVC от ExKinoRay

529 | 39

2.9 ГБ

В этой теме нет новых непрочитанных сообщений. 12 стульев (1971) DVDRip-AVC от Youtracker

268 | 20

2.19 ГБ

В этой теме нет новых непрочитанных сообщений. 12 стульев (1971) DVDRip от Youtracker

344 | 19

1.45 ГБ

В этой теме нет новых непрочитанных сообщений. 12 стульев (1971) DVDRip от Youtracker

202 | 19

2.82 ГБ

В этой теме нет новых непрочитанных сообщений. Старики-разбойники (1971) DVDRip от Youtracker

18 | 9

744.18 МБ




Вы не можете начинать темы
Вы не можете отвечать на сообщения
Вы не можете редактировать свои сообщения
Вы не можете удалять свои сообщения
Вы не можете добавлять вложения

Перейти:  
Для Мосгорсуда, Роскомнадзора и рекламодателей: mosgorsud-torrent[собачка]yandex.ru
 Вход
ppkBB3cker v.2 © 2008-2014 @ PPK
[ Time : 0.067s | 16 Queries | GZIP : Off ]
CGP output time : 0.042s | 5 Queries | GZIP : Off

Торрент трекер RUTOR.IN, Не можете зайти на rutor.org? Какой новый адрес рутор? Какое зеркало рутор? Не работает rutor.org и зеркала? Тогда наш торрент специально для вас. Rutor.in неофициальное зеркало rutor. В случае если у Вас заблокирован rutor или вдруг Вы не можете на него зайти, то Вы без труда сможете скачать бесплатно и без рекламы последние новинки кино, игр, сериалов и прочего у нас, на Rutor.in. Не нужно использовать прокси, чтобы зайти на рутор, достаточно воспользоваться нашим ресурсом. Все новые фильмы, игры, сериалы, книги и музыка за 2013 и 2014 годы через торрент бесплатно. Скачивайте фильмы в хорошем качестве, игры для пк, xbox, playstation без регистрации. У нас вы найдете новые Зарубежные сериалы и Русские сериалы 2013, 2014, 2015 годов. Оставайтесь с нами, качайте любимые фильмы, игры, сериалы, книги и музыку.