img image001 image001 image001 image001 image001 image001 image001 image001 image001 image001 image001 image001 image001 image001 image001

Planets Sun Sun Sun
Статистика раздачи
Автор: Снежана | Размер: 1.82 ГБ | Добавлен: 24 июл 2013
Раздают: 51    Качают: 7
Скачать торрент
Скачать торрент
Описание торрента

СообщениеДобавлено: 24 июл 2013 

#77

Страна: СССР, Мексика
Производство: Ленфильм, Instituto Mexicano de Cinematografía (IMCINE)
Жанр: Драма
Год выпуска: 1988

Продолжительность: 2 x ~ 01:08:30
Язык: Русский

Оригинальная аудиодорожка: Нет

Cубтитры: Нет
Режиссер: Серхио Ольхович
В ролях: Дмитрий Харатьян, Леонид Куравлёв, Никита Михайловский, Тимофей Спивак, Вера Глаголева, Лев Дуров, Любовь Виролайнен, Виктор Костецкий, Эрнст Романов, Надежда Смирнова, Федор Одиноков, Клаудио Брук, Хосе Карлос Руис, Делия Касанова, Сесилия Тижерина


Описание: 1917 год. Гражданская война вносит разлад в семью дворян Ольховских. Глава семьи сочувствует большевикам, его дочь — комиссар красной Армии, брат — эсер, младший сын с первой волной эмиграции покидает Россию и волею судеб остается навсегда в Мексике.
Тип релиза: SATRip
Видео: 640x480 (1.33:1), 25 fps, DivX ~1712 kbps avg, 0.22 bit/pixel
Аудио: 48 kHz, 2.0 ~192.00 kbps avg

Семпл
Общее
Полное имя : D:1АААЭСП1 серия.avi
Формат : AVI
Формат/Информация : Audio Video Interleave
Размер файла : 880 Мбайт
Продолжительность : 1 ч. 4 м.
Общий поток : 1914 Кбит/сек
Библиотека кодирования : VirtualDub build 32842/release

Видео
Идентификатор : 0
Формат : MPEG-4 Visual
Параметр BVOP формата : 1
Параметр QPel формата : Нет
Параметр GMC формата : Без точки перехода
Параметр матрицы формата : Default (H.263)
Режим смешивания : Сжатый битовый поток
Идентификатор кодека : DX50
Идентификатор кодека/Подсказка : DivX 5
Продолжительность : 1 ч. 4 м.
Битрейт : 1713 Кбит/сек
Ширина : 640 пикселей
Высота : 480 пикселей
Соотношение сторон : 4:3
Частота кадров : 25,000 кадров/сек
Цветовое пространство : YUV
Субдискретизация насыщенности : 4:2:0
Битовая глубина : 8 бит
Тип развёртки : Прогрессивная
Метод сжатия : С потерями
Бит/(Пиксели*Кадры) : 0.223
Размер потока : 787 Мбайт (89%)
Библиотека кодирования : DivX 6.8.5 (UTC 2009-08-20)

Аудио
Идентификатор : 1
Формат : MPEG Audio
Версия формата : Version 1
Профиль формата : Layer 3
Идентификатор кодека : 55
Идентификатор кодека/Подсказка : MP3
Продолжительность : 1 ч. 4 м.
Вид битрейта : Постоянный
Битрейт : 192 Кбит/сек
Каналы : 2 канала
Частота : 48,0 КГц
Метод сжатия : С потерями
Задержка видео : 8 мс.
Размер потока : 88,2 Мбайт (10%)
Выравнивание : Разделение по промежуткам
Продолжительность промежутка : 40 мс. (1,00 видеокадр)
Время предзагрузки промежутка : 500 мс.
Библиотека кодирования : LAME3.98.2




Релиз группа:

Релиз:



   Похожие торренты   Торрент   Размер 
В этой теме нет новых непрочитанных сообщений. Загон (1988) SATRip

66 | 3

1.46 ГБ

В этой теме нет новых непрочитанных сообщений. Трое (1988) SATRip

2 | 8

1007.16 МБ

В этой теме нет новых непрочитанных сообщений. Каскадёр (1988) SATRip

20 | 4

39.8 МБ

В этой теме нет новых непрочитанных сообщений. Диссидент (1988) SATRip от RG MixTorrent

1 | 2

1.17 ГБ

В этой теме нет новых непрочитанных сообщений. Жена керосинщика (1988) SATRip

260 | 16

2.13 ГБ

В этой теме нет новых непрочитанных сообщений. Роковая ошибка (1988) SATRip

53 | 29

1.46 ГБ

В этой теме нет новых непрочитанных сообщений. Чёрный монах (1988) SATRip

18 | 3

1.09 ГБ




Вы не можете начинать темы
Вы не можете отвечать на сообщения
Вы не можете редактировать свои сообщения
Вы не можете удалять свои сообщения
Вы не можете добавлять вложения

Перейти:  
Для Мосгорсуда, Роскомнадзора и рекламодателей: mosgorsud-torrent[собачка]yandex.ru
 Вход
ppkBB3cker v.2 © 2008-2014 @ PPK
[ Time : 0.041s | 14 Queries | GZIP : Off ]

Торрент трекер RUTOR.IN, Не можете зайти на rutor.org? Какой новый адрес рутор? Какое зеркало рутор? Не работает rutor.org и зеркала? Тогда наш торрент специально для вас. Rutor.in неофициальное зеркало rutor. В случае если у Вас заблокирован rutor или вдруг Вы не можете на него зайти, то Вы без труда сможете скачать бесплатно и без рекламы последние новинки кино, игр, сериалов и прочего у нас, на Rutor.in. Не нужно использовать прокси, чтобы зайти на рутор, достаточно воспользоваться нашим ресурсом. Все новые фильмы, игры, сериалы, книги и музыка за 2013 и 2014 годы через торрент бесплатно. Скачивайте фильмы в хорошем качестве, игры для пк, xbox, playstation без регистрации. У нас вы найдете новые Зарубежные сериалы и Русские сериалы 2013, 2014, 2015 годов. Оставайтесь с нами, качайте любимые фильмы, игры, сериалы, книги и музыку.