img image001 image001 image001 image001 image001 image001 image001 image001 image001 image001 image001 image001 image001 image001 image001

Planets Sun Sun Sun
Статистика раздачи
Автор: Снежана | Размер: 1.46 ГБ | Добавлен: 24 июл 2013
Раздают: 35    Качают: 11
Скачать торрент
Скачать торрент
Описание торрента

СообщениеДобавлено: 24 июл 2013 

#77
Страна: СССР
Производство: Мосфильм
Жанр: комедия
Год выпуска: 1971
Продолжительность: 01:26:27

Перевод: не требуется
Оригинальная аудиодорожка: русский
Cубтитры: нет

Режиссер: Эльдар Рязанов

В ролях:
Юрий Никулин, Евгений Евстигнеев, Ольга Аросева, Георгий Бурков, Андрей Миронов, Валентина Владимирова, Валентина Талызина, Юрий Белов, Роман Филиппов, Готлиб Ронинсон, Юрий Смирнов, Лев Дуров, Борис Рунге, Ирина Мурзаева, Нина Агапова, Виктор Байков, Александр Ширвиндт, Евгений Перов, Борис Владимиров, Георгий Куликов, Наталия Санько, Леонид Чубаров, Александр Январёв, Александра Данилова, Владимир Гуляев, Феликс Яворский, Эльдар Рязанов, Юрий Яковлев (текст от автора)...

Описание:
Следователя прокуратуры Николая Сергеевича Мячикова, достигшего пенсионного возраста, пытаются насильно «уйти» с работы, так как на его место есть кандидат, присланный «сверху». Но Фёдор Фёдорович Федяев, начальник Мячикова, мотивирует это тем, что за последние два месяца тот не раскрыл ни одного преступления. В это же время добровольно собирается на заслуженный отдых друг Мячикова — инженер Валентин Петрович Воробьёв. Однако, на прощальном собрании, тронутый "дежурными" речами коллег, которые Воробьев принимает за чистую монету, Валентин Петрович решает остаться на работе. А, чтобы помочь и другу, предлагает совершить «преступление века». Мячиков раскроет его, и начальству ничего не останется, как оставить следователя на службе. Для начала будущие пенсионеры отправляются в музей...





Исходник: DVD5 R5
Тип релиза: DVDRip
Контейнер: AVI

Видео: 720x528 (4:3), 25 fps, XviD ~ 1952 kbps avg, 0.205 bit/pixel
Аудио: 48 kHz, Dolby AC3 5.1, 448 kbps

Раздача от:
Общее
Полное имя : Stariki-razbojniki.1971.DVDRip_[Youtracker]_by_AVP Studio.avi
Формат : AVI
Формат/Информация : Audio Video Interleave
Размер файла : 1,46 Гбайт
Продолжительность : 1 ч. 26 м.
Общий поток : 2410 Кбит/сек
Программа кодирования : VirtualDubModRus 1.5.10.2 (build 2542/release)
Библиотека кодирования : VirtualDubMod build 2542/release

Видео
Идентификатор : 0
Формат : MPEG-4 Visual
Профиль формата : Advanced Simple@L5
Параметр BVOP формата : 1
Параметр QPel формата : Нет
Параметр GMC формата : Без точки перехода
Параметр матрицы формата : Выборочная
Идентификатор кодека : XVID
Идентификатор кодека/Подсказка : XviD
Продолжительность : 1 ч. 26 м.
Битрейт : 1952 Кбит/сек
Ширина : 720 пикселей
Высота : 528 пикселей
Соотношение сторон : 4:3
Частота кадров : 25,000 кадров/сек
Цветовое пространство : YUV
Субдискретизация насыщенности : 4:2:0
Битовая глубина : 8 бит
Тип развёртки : Прогрессивная
Метод сжатия : С потерями
Бит/(Пиксели*Кадры) : 0.205
Размер потока : 1,18 Гбайт (81%)
Библиотека кодирования : XviD 65

Аудио
Идентификатор : 1
Формат : AC-3
Формат/Информация : Audio Coding 3
Расширение режима : CM (complete main)
Идентификатор кодека : 2000
Продолжительность : 1 ч. 26 м.
Вид битрейта : Постоянный
Битрейт : 448 Кбит/сек
Каналы : 6 каналов
Расположение каналов : Front: L C R, Side: L R, LFE
Частота : 48,0 КГц
Битовая глубина : 16 бит
Метод сжатия : С потерями
Задержка видео : 558 мс.
Размер потока : 277 Мбайт (19%)
Выравнивание : Разделение по промежуткам
Продолжительность промежутка : 40 мс. (1,00 видеокадр)
Время предзагрузки промежутка : 500 мс





   Похожие торренты   Торрент   Размер 
В этой теме нет новых непрочитанных сообщений. Старики-разбойники (1971) DVDRip от Youtracker

18 | 9

744.18 МБ

В этой теме нет новых непрочитанных сообщений. Старики-разбойники (1971) DVDRip-AVC от Youtracker

84 | 18

1.46 ГБ

В этой теме нет новых непрочитанных сообщений. Старики-разбойники (1971) DVDRip-AVC от ExKinoRay

267 | 17

1.94 ГБ

В этой теме нет новых непрочитанных сообщений. Старики-разбойники (1971) DVDRip | Реставрация

58 | 16

1.37 ГБ

В этой теме нет новых непрочитанных сообщений. Старики-разбойники (1971) DVDRip от MediaClub | Реставрация

136 | 15

742.89 МБ

В этой теме нет новых непрочитанных сообщений. Старики-разбойники (1971) HDTVRip-AVC

30 | 9

1.45 ГБ

В этой теме нет новых непрочитанных сообщений. Старики-разбойники (1971) DVD5 | Реставрация

14 | 5

4.26 ГБ




Вы не можете начинать темы
Вы не можете отвечать на сообщения
Вы не можете редактировать свои сообщения
Вы не можете удалять свои сообщения
Вы не можете добавлять вложения

Перейти:  
Для Мосгорсуда, Роскомнадзора и рекламодателей: mosgorsud-torrent[собачка]yandex.ru
 Вход
ppkBB3cker v.2 © 2008-2014 @ PPK
[ Time : 0.044s | 14 Queries | GZIP : On ]

Торрент трекер RUTOR.IN, Не можете зайти на rutor.org? Какой новый адрес рутор? Какое зеркало рутор? Не работает rutor.org и зеркала? Тогда наш торрент специально для вас. Rutor.in неофициальное зеркало rutor. В случае если у Вас заблокирован rutor или вдруг Вы не можете на него зайти, то Вы без труда сможете скачать бесплатно и без рекламы последние новинки кино, игр, сериалов и прочего у нас, на Rutor.in. Не нужно использовать прокси, чтобы зайти на рутор, достаточно воспользоваться нашим ресурсом. Все новые фильмы, игры, сериалы, книги и музыка за 2013 и 2014 годы через торрент бесплатно. Скачивайте фильмы в хорошем качестве, игры для пк, xbox, playstation без регистрации. У нас вы найдете новые Зарубежные сериалы и Русские сериалы 2013, 2014, 2015 годов. Оставайтесь с нами, качайте любимые фильмы, игры, сериалы, книги и музыку.