img image001 image001 image001 image001 image001 image001 image001 image001 image001 image001 image001 image001 image001 image001 image001

Planets Sun Sun Sun
Статистика раздачи
Автор: Снежана | Размер: 2.92 ГБ | Добавлен: 24 июл 2013
Раздают: 435    Качают: 20
Скачать торрент
Скачать торрент
Описание торрента

СообщениеДобавлено: 24 июл 2013 

#77

Информация о фильме
Название: Снайпер. Оружие возмездия
Год выхода: 2009
Жанр: военный
Режиссер: Александр Ефремов
В ролях: Дмитрий Певцов, Мария Миронова мл., Алина Сергеева, Анна Хитрик, Борис Гергалов, Павел Делонг, Пауль Ассбек, Владас Багдонас

О фильме: В 1942 году под Сталинградом группа старшего лейтенанта Яшина сталкивается с хитрым противником — немецким капитаном Карлом Кляйстом. В подстроенной им ловушке погибает девушка-снайпер Алеся Микулич, а сам Яшин получает тяжелое ранение. Война закончена, и Яшин теперь исполняет роль коменданта в небольшом немецком городке. Его помощник находит в здании старой мануфактуры подозрительные чертежи. В поисках тайного оружия нацистской Германии, в городок приезжает инженер Михайлов. Вскоре выясняется, что секретную лабораторию охраняет группа немецких снайперов под руководством Карла Кляйста.

Выпущено: Россия
Продолжительность: 02:52:39
Озвучивание: Оригинальное
Файл
Формат: MKV
Качество: BDRip 720p
Видео: AVC , 1280x720 , 2 048 Kbps
Аудио: AC-3 , 6 channels , 320 Kbps



General
Unique ID : 53903415408352950400931978330177429895 (0x288D6B912D35B433CF5B477B0E966187)
Complete name : Q:снайпер оружие возмездияsnayper_oruzie_vozmezdiya_2009.mkv
Format : Matroska
Format version : Version 2
File size : 2.92 GiB
Duration : 2h 56mn
Overall bit rate : 2 365 Kbps
Writing application : Lavf52.93.0
Writing library : Lavf52.93.0

Video
ID : 1
Format : AVC
Format/Info : Advanced Video Codec
Format profile : High@L3.1
Format settings, CABAC : Yes
Format settings, ReFrames : 3 frames
Codec ID : V_MPEG4/ISO/AVC
Duration : 2h 56mn
Bit rate : 2 048 Kbps
Width : 1 280 pixels
Height : 720 pixels
Display aspect ratio : 16:9
Frame rate mode : Variable
Frame rate : 25.000 fps
Color space : YUV
Chroma subsampling : 4:2:0
Bit depth : 8 bits
Scan type : Progressive
Bits/(Pixel*Frame) : 0.089
Stream size : 2.47 GiB (84%)
Writing library : x264 core 112
Encoding settings : cabac=1 / ref=3 / deblock=1:0:0 / analyse=0x3:0x113 / me=hex / subme=7 / psy=1 / psy_rd=1.00:0.00 / mixed_ref=1 / me_range=16 / chroma_me=1 / trellis=1 / 8x8dct=1 / cqm=0 / deadzone=21,11 / fast_pskip=1 / chroma_qp_offset=-2 / threads=1 / sliced_threads=0 / nr=0 / decimate=1 / interlaced=0 / constrained_intra=0 / bframes=3 / b_pyramid=0 / b_adapt=1 / b_bias=0 / direct=1 / weightb=1 / open_gop=0 / weightp=2 / keyint=250 / keyint_min=25 / scenecut=40 / intra_refresh=0 / rc_lookahead=40 / rc=abr / mbtree=1 / bitrate=2048 / ratetol=1.0 / qcomp=0.60 / qpmin=10 / qpmax=51 / qpstep=4 / ip_ratio=1.41 / aq=1:1.00
Default : Yes
Forced : No

Audio
ID : 2
Format : AC-3
Format/Info : Audio Coding 3
Mode extension : CM (complete main)
Format settings, Endianness : Big
Codec ID : A_AC3
Duration : 2h 56mn
Bit rate mode : Constant
Bit rate : 320 Kbps
Channel(s) : 6 channels
Channel positions : Front: L C R, Side: L R, LFE
Sampling rate : 48.0 KHz
Bit depth : 16 bits
Compression mode : Lossy
Delay relative to video : -40ms
Stream size : 404 MiB (14%)
Default : Yes
Forced : No


Релиз от: &



   Похожие торренты   Торрент   Размер 
В этой теме нет новых непрочитанных сообщений. Снайпер: Оружие возмездия (2009) DVD5

15 | 6

4.18 ГБ

В этой теме нет новых непрочитанных сообщений. Снайпер: Оружие возмездия (2009) DVD9

155 | 13

7.43 ГБ

В этой теме нет новых непрочитанных сообщений. Снайпер. Оружие возмездия (2009) DVDRip

36 | 8

2.74 ГБ

В этой теме нет новых непрочитанных сообщений. Снайпер: Оружие возмездия (2009) DVDRip - Zona-X

73 | 16

2.04 ГБ

В этой теме нет новых непрочитанных сообщений. Снайпер: Оружие возмездия (2009) DVDRip | КПК от Generalfilm

42 | 11

560.22 МБ

В этой теме нет новых непрочитанных сообщений. Снайпер: Оружие возмездия (2009) DVDRip-AVC от FREEISLAND

13 | 6

2.9 ГБ

В этой теме нет новых непрочитанных сообщений. VA - Легенды Ретро FM в Санкт-Петербурге (2012) DVDRip от ImperiaFilm & FilmTracker

9 | 4

2.06 ГБ




Вы не можете начинать темы
Вы не можете отвечать на сообщения
Вы не можете редактировать свои сообщения
Вы не можете удалять свои сообщения
Вы не можете добавлять вложения

Перейти:  
Для Мосгорсуда, Роскомнадзора и рекламодателей: mosgorsud-torrent[собачка]yandex.ru
 Вход
ppkBB3cker v.2 © 2008-2014 @ PPK
[ Time : 0.080s | 14 Queries | GZIP : Off ]

Торрент трекер RUTOR.IN, Не можете зайти на rutor.org? Какой новый адрес рутор? Какое зеркало рутор? Не работает rutor.org и зеркала? Тогда наш торрент специально для вас. Rutor.in неофициальное зеркало rutor. В случае если у Вас заблокирован rutor или вдруг Вы не можете на него зайти, то Вы без труда сможете скачать бесплатно и без рекламы последние новинки кино, игр, сериалов и прочего у нас, на Rutor.in. Не нужно использовать прокси, чтобы зайти на рутор, достаточно воспользоваться нашим ресурсом. Все новые фильмы, игры, сериалы, книги и музыка за 2013 и 2014 годы через торрент бесплатно. Скачивайте фильмы в хорошем качестве, игры для пк, xbox, playstation без регистрации. У нас вы найдете новые Зарубежные сериалы и Русские сериалы 2013, 2014, 2015 годов. Оставайтесь с нами, качайте любимые фильмы, игры, сериалы, книги и музыку.