img image001 image001 image001 image001 image001 image001 image001 image001 image001 image001 image001 image001 image001 image001 image001

Planets Sun Sun Sun
Статистика раздачи
Автор: Снежана | Размер: 744.18 МБ | Добавлен: 24 июл 2013
Раздают: 18    Качают: 9
Скачать торрент
Скачать торрент
Описание торрента

СообщениеДобавлено: 24 июл 2013 

#77
Страна: СССР
Производство: Мосфильм
Жанр: комедия
Год выпуска: 1971
Продолжительность: 01:26:27

Перевод: не требуется
Оригинальная аудиодорожка: русский
Cубтитры: нет

Режиссер: Эльдар Рязанов

В ролях:
Юрий Никулин, Евгений Евстигнеев, Ольга Аросева, Георгий Бурков, Андрей Миронов, Валентина Владимирова, Валентина Талызина, Юрий Белов, Роман Филиппов, Готлиб Ронинсон, Юрий Смирнов, Лев Дуров, Борис Рунге, Ирина Мурзаева, Нина Агапова, Виктор Байков, Александр Ширвиндт, Евгений Перов, Борис Владимиров, Георгий Куликов, Наталия Санько, Леонид Чубаров, Александр Январёв, Александра Данилова, Владимир Гуляев, Феликс Яворский, Эльдар Рязанов, Юрий Яковлев (текст от автора)...

Описание:
Следователя прокуратуры Николая Сергеевича Мячикова, достигшего пенсионного возраста, пытаются насильно «уйти» с работы, так как на его место есть кандидат, присланный «сверху». Но Фёдор Фёдорович Федяев, начальник Мячикова, мотивирует это тем, что за последние два месяца тот не раскрыл ни одного преступления. В это же время добровольно собирается на заслуженный отдых друг Мячикова — инженер Валентин Петрович Воробьёв. Однако, на прощальном собрании, тронутый "дежурными" речами коллег, которые Воробьев принимает за чистую монету, Валентин Петрович решает остаться на работе. А, чтобы помочь и другу, предлагает совершить «преступление века». Мячиков раскроет его, и начальству ничего не останется, как оставить следователя на службе. Для начала будущие пенсионеры отправляются в музей...





Исходник: DVD5 R5
Тип релиза: DVDRip
Контейнер: AVI

Видео: 640x464 (1,379:1), 25 fps, XviD ~ 1066 kbps avg, 0.144 bit/pixel
Аудио: 48 kHz, MP3 2.0, 128 kbps

Раздача от:
Общее
Полное имя : Stariki-razbojniki.1971.DVDRip-745_[Youtracker]_by_AVP Studio.avi
Формат : AVI
Формат/Информация : Audio Video Interleave
Размер файла : 744 Мбайт
Продолжительность : 1 ч. 26 м.
Общий поток : 1204 Кбит/сек
Программа кодирования : VirtualDubModRus 1.5.10.2 (build 2542/release)
Библиотека кодирования : VirtualDubMod build 2542/release

Видео
Идентификатор : 0
Формат : MPEG-4 Visual
Профиль формата : Advanced Simple@L5
Параметр BVOP формата : 1
Параметр QPel формата : Нет
Параметр GMC формата : Без точки перехода
Параметр матрицы формата : Выборочная
Идентификатор кодека : XVID
Идентификатор кодека/Подсказка : XviD
Продолжительность : 1 ч. 26 м.
Битрейт : 1066 Кбит/сек
Ширина : 640 пикселей
Высота : 464 пикселя
Соотношение сторон : 1,379
Частота кадров : 25,000 кадров/сек
Цветовое пространство : YUV
Субдискретизация насыщенности : 4:2:0
Битовая глубина : 8 бит
Тип развёртки : Прогрессивная
Метод сжатия : С потерями
Бит/(Пиксели*Кадры) : 0.144
Размер потока : 659 Мбайт (89%)
Библиотека кодирования : XviD 65

Аудио
Идентификатор : 1
Формат : MPEG Audio
Версия формата : Version 1
Профиль формата : Layer 3
Идентификатор кодека : 55
Идентификатор кодека/Подсказка : MP3
Продолжительность : 1 ч. 26 м.
Вид битрейта : Постоянный
Битрейт : 128 Кбит/сек
Каналы : 2 канала
Частота : 48,0 КГц
Метод сжатия : С потерями
Размер потока : 79,1 Мбайт (11%)
Выравнивание : Соединение по промежуткам
Продолжительность промежутка : 40 мс. (1,00 видеокадр)
Время предзагрузки промежутка : 504 мс.
Библиотека кодирования : L3.99r
Настройки программы : -m s -V 4 -q 2 -lowpass 17 -b 128





   Похожие торренты   Торрент   Размер 
В этой теме нет новых непрочитанных сообщений. Старики-разбойники (1971) DVDRip-AVC от Youtracker

84 | 18

1.46 ГБ

В этой теме нет новых непрочитанных сообщений. Старики-разбойники (1971) DVDRip от Youtracker

35 | 11

1.46 ГБ

В этой теме нет новых непрочитанных сообщений. Старики-разбойники (1971) DVDRip | Реставрация

58 | 16

1.37 ГБ

В этой теме нет новых непрочитанных сообщений. Старики-разбойники (1971) DVDRip-AVC от ExKinoRay

267 | 17

1.94 ГБ

В этой теме нет новых непрочитанных сообщений. Старики-разбойники (1971) DVDRip от MediaClub | Реставрация

148 | 15

742.89 МБ

В этой теме нет новых непрочитанных сообщений. Старики-разбойники (1971) HDTVRip-AVC

32 | 11

1.45 ГБ

В этой теме нет новых непрочитанных сообщений. Старики-разбойники (1971) HDTV 1080i

113 | 29

4.73 ГБ




Вы не можете начинать темы
Вы не можете отвечать на сообщения
Вы не можете редактировать свои сообщения
Вы не можете удалять свои сообщения
Вы не можете добавлять вложения

Перейти:  
Для Мосгорсуда, Роскомнадзора и рекламодателей: mosgorsud-torrent[собачка]yandex.ru
 Вход
ppkBB3cker v.2 © 2008-2014 @ PPK
[ Time : 0.037s | 14 Queries | GZIP : Off ]

Торрент трекер RUTOR.IN, Не можете зайти на rutor.org? Какой новый адрес рутор? Какое зеркало рутор? Не работает rutor.org и зеркала? Тогда наш торрент специально для вас. Rutor.in неофициальное зеркало rutor. В случае если у Вас заблокирован rutor или вдруг Вы не можете на него зайти, то Вы без труда сможете скачать бесплатно и без рекламы последние новинки кино, игр, сериалов и прочего у нас, на Rutor.in. Не нужно использовать прокси, чтобы зайти на рутор, достаточно воспользоваться нашим ресурсом. Все новые фильмы, игры, сериалы, книги и музыка за 2013 и 2014 годы через торрент бесплатно. Скачивайте фильмы в хорошем качестве, игры для пк, xbox, playstation без регистрации. У нас вы найдете новые Зарубежные сериалы и Русские сериалы 2013, 2014, 2015 годов. Оставайтесь с нами, качайте любимые фильмы, игры, сериалы, книги и музыку.