img image001 image001 image001 image001 image001 image001 image001 image001 image001 image001 image001 image001 image001 image001 image001

Planets Sun Sun Sun
Статистика раздачи
Автор: Снежана | Размер: 837.76 МБ | Добавлен: 24 июл 2013
Раздают: 43    Качают: 6
Скачать торрент
Скачать торрент
Описание торрента

СообщениеДобавлено: 24 июл 2013 

#77

Информация о фильме
Оригинальное название: Ищи ветра
Год выхода: 1979
Жанр: драма, приключения
Режиссер: Владимир Любомудров
В ролях: Константин Григорьев, Павел Кадочников, Елена Проклова, Лев Прыгунов, Александр Пороховщиков, Михаил Кононов, Сергей Бачурский, Александр Январев, Николай Погодин, Виталий Титов, Вячеслав Глушков

О фильме:
В затерянной усадьбе в бескрайней уральской степи укрылась от гражданской войны семья управляющего частным конным заводом. Однажды в усадьбе появляется давний знакомый семьи, поручик белогвардейской армии Виктор, и объявляет о своем желании выйти из борьбы и жить, как "богом положено". Старик венчает свою дочь и Виктора, но миру теперь в этом доме не быть, да и белые казаки уже близко.


Страна: СССР
Студия: Свердловская киностудия
Продолжительность: 01:15:17
Перевод: Не требуется

Файл
Кодек: XviD
Качество: SATRip
Видео: XviD, 1226 Кбит/с, 640x480
Звук: АС3, 2 ch, 320 Кбит/с

Семпл




Общее
Полное имя :Ischi.wetra.1979.XviD.SATRip.Roy.avi
Формат : AVI
Формат/Информация : Audio Video Interleave
Размер файла : 838 Мбайт
Продолжительность : 1 ч. 15 м.
Общий поток : 1556 Кбит/сек
Библиотека кодирования : Boilsoft Joiner build 2411/release

Видео
Идентификатор : 0
Формат : MPEG-4 Visual
Профиль формата : Simple@L3
Параметр BVOP формата : Нет
Параметр QPel формата : Нет
Параметр GMC формата : Без точки перехода
Параметр матрицы формата : Default (H.263)
Идентификатор кодека : XVID
Идентификатор кодека/Подсказка : XviD
Продолжительность : 1 ч. 15 м.
Битрейт : 1226 Кбит/сек
Ширина : 640 пикселей
Высота : 480 пикселей
Соотношение сторон : 4:3
Частота кадров : 25,000 кадров/сек
Цветовое пространство : YUV
Субдискретизация насыщенности : 4:2:0
Битовая глубина : 8 бит
Тип развёртки : Прогрессивная
Метод сжатия : С потерями
Бит/(Пиксели*Кадры) : 0.160
Размер потока : 660 Мбайт (79%)
Библиотека кодирования : ZJMedia MPEG Encoder

Аудио
Идентификатор : 1
Формат : AC-3
Формат/Информация : Audio Coding 3
Расширение режима : CM (complete main)
Параметр Endianness формата : Big
Идентификатор кодека : 2000
Продолжительность : 1 ч. 15 м.
Вид битрейта : Постоянный
Битрейт : 320 Кбит/сек
Каналы : 2 канала
Расположение каналов : Front: L R
Частота : 48,0 КГц
Битовая глубина : 16 бит
Метод сжатия : С потерями
Размер потока : 172 Мбайт (21%)
Выравнивание : Разделение по промежуткам
Продолжительность промежутка : 40 мс. (1,00 видеокадр)
Время предзагрузки промежутка : 500 мс.

Релиз от:



   Похожие торренты   Торрент   Размер 
В этой теме нет новых непрочитанных сообщений. Дом ветра (2011) SATRip

15 | 2

1.32 ГБ

В этой теме нет новых непрочитанных сообщений. Дом ветра (2012) SATRip от КинозалSAT

1 | 2

699.56 МБ

В этой теме нет новых непрочитанных сообщений. Дом ветра (2012) SATRip от КинозалSAT

2 | 2

1.56 ГБ

В этой теме нет новых непрочитанных сообщений. Порыв ветра (2009) SATRip от KinoZalSat

5 | 2

300.69 МБ

В этой теме нет новых непрочитанных сообщений. 7Б - Молодые Ветра (2001) MP3

18 | 40

130.83 МБ

В этой теме нет новых непрочитанных сообщений. Александр Софикс - Вес Ветра (2006) МР3

20 | 6

112.11 МБ

В этой теме нет новых непрочитанных сообщений. Сын ветра / Hawaizaada (2015) WEBRip | L2

159 | 25

1.45 ГБ




Вы не можете начинать темы
Вы не можете отвечать на сообщения
Вы не можете редактировать свои сообщения
Вы не можете удалять свои сообщения
Вы не можете добавлять вложения

Перейти:  
Для Мосгорсуда, Роскомнадзора и рекламодателей: mosgorsud-torrent[собачка]yandex.ru
 Вход
ppkBB3cker v.2 © 2008-2014 @ PPK
[ Time : 0.049s | 15 Queries | GZIP : Off ]

Торрент трекер RUTOR.IN, Не можете зайти на rutor.org? Какой новый адрес рутор? Какое зеркало рутор? Не работает rutor.org и зеркала? Тогда наш торрент специально для вас. Rutor.in неофициальное зеркало rutor. В случае если у Вас заблокирован rutor или вдруг Вы не можете на него зайти, то Вы без труда сможете скачать бесплатно и без рекламы последние новинки кино, игр, сериалов и прочего у нас, на Rutor.in. Не нужно использовать прокси, чтобы зайти на рутор, достаточно воспользоваться нашим ресурсом. Все новые фильмы, игры, сериалы, книги и музыка за 2013 и 2014 годы через торрент бесплатно. Скачивайте фильмы в хорошем качестве, игры для пк, xbox, playstation без регистрации. У нас вы найдете новые Зарубежные сериалы и Русские сериалы 2013, 2014, 2015 годов. Оставайтесь с нами, качайте любимые фильмы, игры, сериалы, книги и музыку.
cron