img image001 image001 image001 image001 image001 image001 image001 image001 image001 image001 image001 image001 image001 image001 image001

Planets Sun Sun Sun
Статистика раздачи
Автор: Снежана | Размер: 2.91 ГБ | Добавлен: 24 июл 2013
Раздают: 132    Качают: 14
Скачать торрент
Скачать торрент
Описание торрента

СообщениеДобавлено: 24 июл 2013 

#77
Страна: СССР
Студия: Мосфильм...
Жанр: драма, мелодрама, комедия
Год выпуска: 1979
Продолжительность: 02:28:17

Перевод: не требуется
Оригинальная аудиодорожка: русский
Cубтитры: нет

Режиссер: Владимир Меньшов

В ролях: Вера Алентова, Ирина Муравьёва, Алексей Баталов, Раиса Рязанова, Александр Фатюшин, Борис Сморчков, Виктор Уральский, Валентина Ушакова, Юрий Васильев, Евгения Ханаева, Зоя Фёдорова, Наталья Вавилова, Лия Ахеджакова, Олег Табаков, Владимир Басов, Владислав Матвеев, Владимир Гусев, Муза Крепкогорская, Татьяна Конюхова, Иннокентий Смоктуновский, Георгий Юматов, Леонид Харитонов, Павел Рудаков, Вениамин Нечаев, Лариса Барабанова, Гарри Бардин, Ирина Березина, Михаил Бочаров, Александр Бородянский, Лариса Данилина, Александра Данилова, Александра Денисова, Любовь Калюжная, Виктор Лазарев, Виктор Незнанов, Татьяна Никитина, Сергей Никитин, Елена Вольская, Инна Выходцева, Геннадий Ялович, Алекс

Описание: Москва пятидесятых годов. Три молодые провинциалки приезжают в Москву в поисках того, что ищут люди во всех столицах мира - любви, счастья и достатка. Их судьбы складываются именно так, как предполагает характер каждой из девушек. Антонина выходит замуж, растит детей, любит мужа. Людмиле Москва представляется лотереей, в которой она должна выиграть свое особенное счастье. Катерина же - отчаянно влюбляется, но избранник ее оставляет. Однако она не опускает руки, в одиночку растит дочь и к тому же успевает сделать блестящую карьеру. В сорок лет судьба дарит ей встречу с прекрасным человеком и настоящую любовь...






Качество: BDRip-AVC (Blu-ray 1080p)
Формат: MKV

Видео: 1024x776 (4:3), 23.976 fps, H264 ~ 2358 kbps avg, 0.124 bit/pixel
Аудио: 48 kHz, АС3 6 ch, 448 kbps, русский
Дополнительно: сохранены главы, как на оригинальном Blu-ray диске.

Раздача от:
Общее
Полное имя : Moskva.slezam.ne.verit.1979.O.BDRip-AVC1.mkv
Формат : Matroska
Версия формата : Version 4 / Version 2
Размер файла : 1,31 Гбайт
Продолжительность : 1 ч. 6 м.
Общий поток : 2807 Кбит/сек
Дата кодирования : UTC 2013-07-05 22:19:25
Программа кодирования : mkvmerge v6.1.0 ('Old Devil') built on Mar 2 2013 14:32:37
Библиотека кодирования : libebml v1.3.0 + libmatroska v1.4.0

Видео
Идентификатор : 1
Формат : AVC
Формат/Информация : Advanced Video Codec
Профиль формата : High@L4.1
Параметр CABAC формата : Да
Параметр ReFrames формата : 11 кадров
Идентификатор кодека : V_MPEG4/ISO/AVC
Продолжительность : 1 ч. 6 м.
Битрейт : 2358 Кбит/сек
Ширина : 1024 пикселя
Высота : 776 пикселей
Соотношение сторон : 4:3
Режим частоты кадров : Постоянный
Частота кадров : 23,976 кадра/сек
Цветовое пространство : YUV
Субдискретизация насыщенности : 4:2:0
Битовая глубина : 8 бит
Тип развёртки : Прогрессивная
Бит/(Пиксели*Кадры) : 0.124
Размер потока : 1,08 Гбайт (82%)
Библиотека кодирования : x264 core 130 r2273 b3065e6
Настройки программы : cabac=1 / ref=11 / deblock=1:-2:-1 / analyse=0x3:0x113 / me=umh / subme=9 / psy=1 / psy_rd=1.00:0.10 / mixed_ref=1 / me_range=32 / chroma_me=1 / trellis=2 / 8x8dct=1 / cqm=0 / deadzone=21,11 / fast_pskip=1 / chroma_qp_offset=-3 / threads=9 / lookahead_threads=2 / sliced_threads=0 / nr=0 / decimate=1 / interlaced=0 / bluray_compat=0 / constrained_intra=0 / bframes=10 / b_pyramid=2 / b_adapt=2 / b_bias=0 / direct=3 / weightb=1 / open_gop=0 / weightp=2 / keyint=240 / keyint_min=23 / scenecut=40 / intra_refresh=0 / rc_lookahead=80 / rc=2pass / mbtree=1 / bitrate=2358 / ratetol=1.0 / qcomp=0.60 / qpmin=0 / qpmax=69 / qpstep=4 / cplxblur=20.0 / qblur=0.5 / ip_ratio=1.40 / aq=2:0.90
Язык : Russian
Default : Да
Forced : Нет

Аудио
Идентификатор : 2
Формат : AC-3
Формат/Информация : Audio Coding 3
Расширение режима : CM (complete main)
Параметр Endianness формата : Big
Идентификатор кодека : A_AC3
Продолжительность : 1 ч. 6 м.
Вид битрейта : Постоянный
Битрейт : 448 Кбит/сек
Каналы : 6 каналов
Расположение каналов : Front: L C R, Side: L R, LFE
Частота : 48,0 КГц
Битовая глубина : 16 бит
Метод сжатия : С потерями
Размер потока : 214 Мбайт (16%)
Язык : Russian
Default : Да
Forced : Нет

Меню
00:00:00.000 : en:00:00:00.000
00:04:00.407 : en:00:04:00.407
00:08:27.257 : en:00:08:27.257
00:09:44.918 : en:00:09:44.918
00:12:57.068 : en:00:12:57.068
00:15:17.917 : en:00:15:17.917
00:22:54.373 : en:00:22:54.373
00:26:51.944 : en:00:26:51.944
00:29:58.338 : en:00:29:58.338
00:35:52.400 : en:00:35:52.400
00:42:41.476 : en:00:42:41.476
00:46:03.344 : en:00:46:03.344
00:48:36.080 : en:00:48:36.080
00:55:13.352 : en:00:55:13.352
01:01:13.003 : en:01:01:13.003
01:04:29.532 : en:01:04:29.532





   Похожие торренты   Торрент   Размер 
В этой теме нет новых непрочитанных сообщений. Москва слезам не верит (1979) BDRip-AVC от Youtracker

225 | 15

2.18 ГБ

В этой теме нет новых непрочитанных сообщений. Москва слезам не верит (1979) HDRip от Youtracker

1986 | 87

1.45 ГБ

В этой теме нет новых непрочитанных сообщений. Москва слезам не верит (1979) DVD5 R5 от Youtracker

327 | 9

4.32 ГБ

В этой теме нет новых непрочитанных сообщений. Москва слезам не верит (1979) BDRemux 1080p от Youtracker

118 | 47

24.65 ГБ

В этой теме нет новых непрочитанных сообщений. Москва слезам не верит (1979) BDRip от MediaClub

614 | 44

2.9 ГБ

В этой теме нет новых непрочитанных сообщений. Москва слезам не верит (1979) BDRip от HELLYWOOD

95 | 21

2.9 ГБ

В этой теме нет новых непрочитанных сообщений. Москва слезам не верит (1979) BDRip от HQCLUB

1814 | 63

2.18 ГБ




Вы не можете начинать темы
Вы не можете отвечать на сообщения
Вы не можете редактировать свои сообщения
Вы не можете удалять свои сообщения
Вы не можете добавлять вложения

Перейти:  
Для Мосгорсуда, Роскомнадзора и рекламодателей: mosgorsud-torrent[собачка]yandex.ru
 Вход
ppkBB3cker v.2 © 2008-2014 @ PPK
[ Time : 0.018s | 16 Queries | GZIP : On ]

Торрент трекер RUTOR.IN, Не можете зайти на rutor.org? Какой новый адрес рутор? Какое зеркало рутор? Не работает rutor.org и зеркала? Тогда наш торрент специально для вас. Rutor.in неофициальное зеркало rutor. В случае если у Вас заблокирован rutor или вдруг Вы не можете на него зайти, то Вы без труда сможете скачать бесплатно и без рекламы последние новинки кино, игр, сериалов и прочего у нас, на Rutor.in. Не нужно использовать прокси, чтобы зайти на рутор, достаточно воспользоваться нашим ресурсом. Все новые фильмы, игры, сериалы, книги и музыка за 2013 и 2014 годы через торрент бесплатно. Скачивайте фильмы в хорошем качестве, игры для пк, xbox, playstation без регистрации. У нас вы найдете новые Зарубежные сериалы и Русские сериалы 2013, 2014, 2015 годов. Оставайтесь с нами, качайте любимые фильмы, игры, сериалы, книги и музыку.