img image001 image001 image001 image001 image001 image001 image001 image001 image001 image001 image001 image001 image001 image001 image001

Planets Sun Sun Sun
Статистика раздачи
Автор: Снежана | Размер: 340.83 МБ | Добавлен: 24 июл 2013
Раздают: 11    Качают: 2
Скачать торрент
Скачать торрент
Описание торрента

СообщениеДобавлено: 24 июл 2013 

Жанр: драма, фантастика, боевик
Год выпуска: 2011
Продолжительность: 00:41:32

Режиссер: Павел Жарков

В ролях: Евгений Мартынов, Никита Чеботарёв, Павел Жарков, Владислав Ермилов, Ярослав Михеев, Сергей Макаров, Антон Володеев, Сергей Гетмановский, Александр Филатов, Артем Ильинский, Антон Дедиков, Анастасия Королькова, Владислав Токарев, Роман Алексанин, Михаил Павлов, Варвара Романова, Ангелина Попова, Нелли Пальгуева, Ирина Целяева, Дмитрий Мемешкин, Анатолий Ерёмин, Андрей Буданов, Иван Семёнов

Описание: Механика цифр - мысли и числа, комбинации и суммы, целый мир; каждый объект и каждая клетка работают в этом. Все они имеют определенные значения и действуют в своих областях, но важно видеть и знать - как, потому что, изменив их, ты можешь изменить всё; поняв систему, ты сотрешь границы; нет предела и ограничений. Выбор исключительно за тем, кто прикасается к цифрам, - если не ставят условий, в которых нет нужного выхода...

Доп. информация:
Сценарий: Павел Жарков
Оператор: Владислав Ермилов
Автор музыки: Павел Жарков

Семпл: http://multi-up.com/873049

Качество видео: WEB-DLRip
Формат видео: AVI

Видео: 720x320 (2.25:1), 30 fps, XviD 1.2.0.dev47, 943 kbps avg, 0.14 bit/pixel
Аудио: 48 kHz, AC3 Dolby Digital, 2/0 (L,R) ch, 192 kbps
Полное имя : Endorphin.avi
Формат : AVI
Формат/Информация : Audio Video Interleave
Размер файла : 341 Мбайт
Продолжительность : 41 м.
Общий поток : 1147 Кбит/сек
Программа кодирования : VirtualDubMod 1.5.10.2 (build 2540/release)
Библиотека кодирования : VirtualDubMod build 2540/release

Видео
Идентификатор : 0
Формат : MPEG-4 Visual
Профиль формата : Advanced Simple@L5
Параметр BVOP формата : 3
Параметр QPel формата : Да
Параметр GMC формата : 3 точки перехода
Параметр матрицы формата : Default (H.263)
Режим смешивания : Сжатый битовый поток
Идентификатор кодека : XVID
Идентификатор кодека/Подсказка : XviD
Продолжительность : 41 м.
Битрейт : 944 Кбит/сек
Ширина : 720 пикселей
Высота : 320 пикселей
Соотношение сторон : 2,25:1
Частота кадров : 30,000 кадров/сек
Цветовое пространство : YUV
Субдискретизация насыщенности : 4:2:0
Битовая глубина : 8 бит
Тип развёртки : Прогрессивная
Метод сжатия : С потерями
Бит/(Пиксели*Кадры) : 0.137
Размер потока : 280 Мбайт (82%)
Библиотека кодирования : XviD 1.2.0.dev47 (UTC 2006-11-01)

Аудио
Идентификатор : 1
Формат : AC-3
Формат/Информация : Audio Coding 3
Расширение режима : CM (complete main)
Параметр Endianness формата : Big
Идентификатор кодека : 2000
Продолжительность : 41 м.
Вид битрейта : Постоянный
Битрейт : 192 Кбит/сек
Каналы : 2 канала
Расположение каналов : Front: L R
Частота : 48,0 КГц
Битовая глубина : 16 бит
Метод сжатия : С потерями
Размер потока : 57,0 Мбайт (17%)
Выравнивание : Разделение по промежуткам
Продолжительность промежутка : 33 мс. (1,00 видеокадр)
Время предзагрузки промежутка : 500 мс.





   Похожие торренты   Торрент   Размер 
В этой теме нет новых непрочитанных сообщений. Эндорфин / Endorphine (2015) WEB-DLRip от MegaPeer | P

125 | 7

1.46 ГБ

В этой теме нет новых непрочитанных сообщений. Эндорфин / Endorphine (2015) WEB-DLRip от MegaPeer | P

22 | 0

745.59 МБ

В этой теме нет новых непрочитанных сообщений. Эндорфин / Endorphine (2015) WEB-DL 1080p | P

36 | 4

3.15 ГБ

В этой теме нет новых непрочитанных сообщений. Это же Индия (2011) WEB-DLRip-AVC

33 | 6

349.55 МБ

В этой теме нет новых непрочитанных сообщений. К-313 [01-02 из 02] (2011) WEB-DLRip от Files-х

0 | 0

730.54 МБ

В этой теме нет новых непрочитанных сообщений. Смешарики. Пин-код [01-10 из 26] (2011) WEB-DLRip

146 | 11

1.35 ГБ

В этой теме нет новых непрочитанных сообщений. Даг / Dag [02х01-02 из 10] (2011) WEB-DLRip | L1

18 | 3

635.95 МБ




Вы не можете начинать темы
Вы не можете отвечать на сообщения
Вы не можете редактировать свои сообщения
Вы не можете удалять свои сообщения
Вы не можете добавлять вложения

Перейти:  
Для Мосгорсуда, Роскомнадзора и рекламодателей: mosgorsud-torrent[собачка]yandex.ru
 Вход
ppkBB3cker v.2 © 2008-2014 @ PPK
[ Time : 0.050s | 16 Queries | GZIP : Off ]

Торрент трекер RUTOR.IN, Не можете зайти на rutor.org? Какой новый адрес рутор? Какое зеркало рутор? Не работает rutor.org и зеркала? Тогда наш торрент специально для вас. Rutor.in неофициальное зеркало rutor. В случае если у Вас заблокирован rutor или вдруг Вы не можете на него зайти, то Вы без труда сможете скачать бесплатно и без рекламы последние новинки кино, игр, сериалов и прочего у нас, на Rutor.in. Не нужно использовать прокси, чтобы зайти на рутор, достаточно воспользоваться нашим ресурсом. Все новые фильмы, игры, сериалы, книги и музыка за 2013 и 2014 годы через торрент бесплатно. Скачивайте фильмы в хорошем качестве, игры для пк, xbox, playstation без регистрации. У нас вы найдете новые Зарубежные сериалы и Русские сериалы 2013, 2014, 2015 годов. Оставайтесь с нами, качайте любимые фильмы, игры, сериалы, книги и музыку.
cron