img image001 image001 image001 image001 image001 image001 image001 image001 image001 image001 image001 image001 image001 image001 image001

Planets Sun Sun Sun
Статистика раздачи
Автор: Снежана | Размер: 1.46 ГБ | Добавлен: 24 июл 2013
Раздают: 50    Качают: 7
Скачать торрент
Скачать торрент
Описание торрента

СообщениеДобавлено: 24 июл 2013 

#77
Страна: СССР
Производство: Мосфильм
Жанр: драма, мелодрама, комедия
Год выпуска: 1975
Продолжительность: 01:27:11

Перевод: не требуется
Оригинальная аудиодорожка: русский
Cубтитры: нет

Режиссер: Георгий Данелия

В ролях:
Леонид Куравлёв, Евгения Симонова, Евгений Леонов, Савелий Крамаров, Нина Маслова, Борислав Брондуков, Валентина Талызина, Николай Парфёнов, Нина Русланова, Готлиб Ронинсон, Татьяна Распутина, Раиса Куркина, Николай Граббе, Владимир Басов, Татьяна Тетерина (озвучание - Наталья Гурзо), Николай Гринько, Тамара Совчи, Нина Доберо, Михаил Васьков, Вячеслав Чигарин, Геннадий Ялович, Игорь Боголюбов, Раднэр Муратов, Петр Любешкин, Юрий Дружинин, Галина Белинская, Маргарита Рассказова, Михаил Светин, Александр Потапов, Алексей Ванин, Капитолина Ильенко, Андрей Макаревич, Ксения Хаирова...

Описание:
Весело и беззаботно жил слесарь-сантехник Афанасий. Не гнушался левыми заработками, любил выпить, поволочиться за девушками. Так проходил день за днем, но однажды… О том, что случилось с Афоней, рассказывает фильм признанного мастера комедии Георгия Данелии...





Исходник: DVD9 R5
Тип релиза: DVDRip
Контейнер: AVI

Видео: 720x544 (4:3), 25 fps, XviD ~ 1934 kbps avg, 0.197 bit/pixel
Аудио: 48 kHz, Dolby AC3 5.1, 448 kbps

Раздача от:
Общее
Полное имя : Afonya.1975.DVDRip_[Youtracker]_by_AVP Studio.avi
Формат : AVI
Формат/Информация : Audio Video Interleave
Размер файла : 1,46 Гбайт
Продолжительность : 1 ч. 27 м.
Общий поток : 2392 Кбит/сек
Программа кодирования : VirtualDubModRus 1.5.10.2 (build 2542/release)
Библиотека кодирования : VirtualDubMod build 2542/release

Видео
Идентификатор : 0
Формат : MPEG-4 Visual
Профиль формата : Advanced Simple@L5
Параметр BVOP формата : 1
Параметр QPel формата : Нет
Параметр GMC формата : Без точки перехода
Параметр матрицы формата : Выборочная
Идентификатор кодека : XVID
Идентификатор кодека/Подсказка : XviD
Продолжительность : 1 ч. 27 м.
Битрейт : 1934 Кбит/сек
Ширина : 720 пикселей
Высота : 544 пикселя
Соотношение сторон : 4:3
Частота кадров : 25,000 кадров/сек
Цветовое пространство : YUV
Субдискретизация насыщенности : 4:2:0
Битовая глубина : 8 бит
Тип развёртки : Прогрессивная
Метод сжатия : С потерями
Бит/(Пиксели*Кадры) : 0.197
Размер потока : 1,18 Гбайт (81%)
Библиотека кодирования : XviD 65

Аудио
Идентификатор : 1
Формат : AC-3
Формат/Информация : Audio Coding 3
Расширение режима : CM (complete main)
Идентификатор кодека : 2000
Продолжительность : 1 ч. 27 м.
Вид битрейта : Постоянный
Битрейт : 448 Кбит/сек
Каналы : 6 каналов
Расположение каналов : Front: L C R, Side: L R, LFE
Частота : 48,0 КГц
Битовая глубина : 16 бит
Метод сжатия : С потерями
Размер потока : 279 Мбайт (19%)
Выравнивание : Разделение по промежуткам
Продолжительность промежутка : 40 мс. (1,00 видеокадр)
Время предзагрузки промежутка : 500 мс





   Похожие торренты   Торрент   Размер 
В этой теме нет новых непрочитанных сообщений. Афоня (1975) DVDRip от Youtracker

21 | 4

744.88 МБ

В этой теме нет новых непрочитанных сообщений. Афоня (1975) DVDRip-AVC от Youtracker

40 | 6

1.46 ГБ

В этой теме нет новых непрочитанных сообщений. Афоня (1975) DVDRip-AVC

49 | 5

1.28 ГБ

В этой теме нет новых непрочитанных сообщений. Афоня (1975) DVDRip

53 | 3

1.37 ГБ

В этой теме нет новых непрочитанных сообщений. Афоня (1975) DVDRip | КПК от Odyzic и MyWorldFilm

15 | 4

750.08 МБ

В этой теме нет новых непрочитанных сообщений. Афоня (1975) Blu-Ray 1080p

213 | 6

22 ГБ

В этой теме нет новых непрочитанных сообщений. Афоня (1975) DVD9

7 | 6

6.35 ГБ




Вы не можете начинать темы
Вы не можете отвечать на сообщения
Вы не можете редактировать свои сообщения
Вы не можете удалять свои сообщения
Вы не можете добавлять вложения

Перейти:  
Для Мосгорсуда, Роскомнадзора и рекламодателей: mosgorsud-torrent[собачка]yandex.ru
 Вход
ppkBB3cker v.2 © 2008-2014 @ PPK
[ Time : 0.046s | 15 Queries | GZIP : Off ]

cron