img image001 image001 image001 image001 image001 image001 image001 image001 image001 image001 image001 image001 image001 image001 image001

Planets Sun Sun Sun
Статистика раздачи
Автор: Снежана | Размер: 744.88 МБ | Добавлен: 24 июл 2013
Раздают: 21    Качают: 4
Скачать торрент
Скачать торрент
Описание торрента

СообщениеДобавлено: 24 июл 2013 

#77
Страна: СССР
Производство: Мосфильм
Жанр: драма, мелодрама, комедия
Год выпуска: 1975
Продолжительность: 01:27:11

Перевод: не требуется
Оригинальная аудиодорожка: русский
Cубтитры: нет

Режиссер: Георгий Данелия

В ролях:
Леонид Куравлёв, Евгения Симонова, Евгений Леонов, Савелий Крамаров, Нина Маслова, Борислав Брондуков, Валентина Талызина, Николай Парфёнов, Нина Русланова, Готлиб Ронинсон, Татьяна Распутина, Раиса Куркина, Николай Граббе, Владимир Басов, Татьяна Тетерина (озвучание - Наталья Гурзо), Николай Гринько, Тамара Совчи, Нина Доберо, Михаил Васьков, Вячеслав Чигарин, Геннадий Ялович, Игорь Боголюбов, Раднэр Муратов, Петр Любешкин, Юрий Дружинин, Галина Белинская, Маргарита Рассказова, Михаил Светин, Александр Потапов, Алексей Ванин, Капитолина Ильенко, Андрей Макаревич, Ксения Хаирова...

Описание:
Весело и беззаботно жил слесарь-сантехник Афанасий. Не гнушался левыми заработками, любил выпить, поволочиться за девушками. Так проходил день за днем, но однажды… О том, что случилось с Афоней, рассказывает фильм признанного мастера комедии Георгия Данелии...





Исходник: DVD9 R5
Тип релиза: DVDRip
Контейнер: AVI

Видео: 624x464 (4:3), 25 fps, XviD ~ 1057 kbps avg, 0.146 bit/pixel
Аудио: 48 kHz, MP3 2.0, 128 kbps

Раздача от:
Общее
Полное имя : Afonya.1975.DVDRip-745_[Youtracker]_by_AVP Studio.avi
Формат : AVI
Формат/Информация : Audio Video Interleave
Размер файла : 745 Мбайт
Продолжительность : 1 ч. 27 м.
Общий поток : 1195 Кбит/сек
Программа кодирования : VirtualDubModRus 1.5.10.2 (build 2542/release)
Библиотека кодирования : VirtualDubMod build 2542/release

Видео
Идентификатор : 0
Формат : MPEG-4 Visual
Профиль формата : Advanced Simple@L5
Параметр BVOP формата : 1
Параметр QPel формата : Нет
Параметр GMC формата : Без точки перехода
Параметр матрицы формата : Выборочная
Идентификатор кодека : XVID
Идентификатор кодека/Подсказка : XviD
Продолжительность : 1 ч. 27 м.
Битрейт : 1057 Кбит/сек
Ширина : 624 пикселя
Высота : 464 пикселя
Соотношение сторон : 4:3
Частота кадров : 25,000 кадров/сек
Цветовое пространство : YUV
Субдискретизация насыщенности : 4:2:0
Битовая глубина : 8 бит
Тип развёртки : Прогрессивная
Метод сжатия : С потерями
Бит/(Пиксели*Кадры) : 0.146
Размер потока : 659 Мбайт (88%)
Библиотека кодирования : XviD 65

Аудио
Идентификатор : 1
Формат : MPEG Audio
Версия формата : Version 1
Профиль формата : Layer 3
Идентификатор кодека : 55
Идентификатор кодека/Подсказка : MP3
Продолжительность : 1 ч. 27 м.
Вид битрейта : Постоянный
Битрейт : 128 Кбит/сек
Каналы : 2 канала
Частота : 48,0 КГц
Метод сжатия : С потерями
Размер потока : 79,8 Мбайт (11%)
Выравнивание : Соединение по промежуткам
Продолжительность промежутка : 40 мс. (1,00 видеокадр)
Время предзагрузки промежутка : 504 мс.
Библиотека кодирования : L3.99r
Настройки программы : -m s -V 4 -q 2 -lowpass 17 -b 128





   Похожие торренты   Торрент   Размер 
В этой теме нет новых непрочитанных сообщений. Афоня (1975) DVDRip от Youtracker

50 | 7

1.46 ГБ

В этой теме нет новых непрочитанных сообщений. Афоня (1975) DVDRip-AVC от Youtracker

40 | 6

1.46 ГБ

В этой теме нет новых непрочитанных сообщений. Афоня (1975) DVDRip-AVC

49 | 5

1.28 ГБ

В этой теме нет новых непрочитанных сообщений. Афоня (1975) DVDRip

53 | 3

1.37 ГБ

В этой теме нет новых непрочитанных сообщений. Афоня (1975) DVDRip | КПК от Odyzic и MyWorldFilm

15 | 4

750.08 МБ

В этой теме нет новых непрочитанных сообщений. Афоня (1975) DVD9

7 | 6

6.35 ГБ

В этой теме нет новых непрочитанных сообщений. Афоня (1975) DVD5

69 | 26

3.76 ГБ




Вы не можете начинать темы
Вы не можете отвечать на сообщения
Вы не можете редактировать свои сообщения
Вы не можете удалять свои сообщения
Вы не можете добавлять вложения

Перейти:  
Для Мосгорсуда, Роскомнадзора и рекламодателей: mosgorsud-torrent[собачка]yandex.ru
 Вход
ppkBB3cker v.2 © 2008-2014 @ PPK
[ Time : 0.021s | 14 Queries | GZIP : On ]

Торрент трекер RUTOR.IN, Не можете зайти на rutor.org? Какой новый адрес рутор? Какое зеркало рутор? Не работает rutor.org и зеркала? Тогда наш торрент специально для вас. Rutor.in неофициальное зеркало rutor. В случае если у Вас заблокирован rutor или вдруг Вы не можете на него зайти, то Вы без труда сможете скачать бесплатно и без рекламы последние новинки кино, игр, сериалов и прочего у нас, на Rutor.in. Не нужно использовать прокси, чтобы зайти на рутор, достаточно воспользоваться нашим ресурсом. Все новые фильмы, игры, сериалы, книги и музыка за 2013 и 2014 годы через торрент бесплатно. Скачивайте фильмы в хорошем качестве, игры для пк, xbox, playstation без регистрации. У нас вы найдете новые Зарубежные сериалы и Русские сериалы 2013, 2014, 2015 годов. Оставайтесь с нами, качайте любимые фильмы, игры, сериалы, книги и музыку.